  0
SECTION
  2
HEADER
  9
$ACADVER
  1
AC1012
  9
$DWGCODEPAGE
  3
dos932
  9
$INSBASE
 10
0.0
 20
0.0
 30
0.0
  9
$EXTMIN
 10
-2161.158999999999
 20
-24864.856
 30
0.0
  9
$EXTMAX
 10
2161.159000000001
 20
-21835.144
 30
0.0
  9
$LIMMIN
 10
0.0
 20
0.0
  9
$LIMMAX
 10
12.0
 20
9.0
  9
$ORTHOMODE
 70
     0
  9
$REGENMODE
 70
     1
  9
$FILLMODE
 70
     1
  9
$QTEXTMODE
 70
     0
  9
$MIRRTEXT
 70
     1
  9
$DRAGMODE
 70
     2
  9
$LTSCALE
 40
10.0
  9
$OSMODE
 70
    37
  9
$ATTMODE
 70
     1
  9
$TEXTSIZE
 40
0.2
  9
$TRACEWID
 40
1.0
  9
$TEXTSTYLE
  7
STANDARD
  9
$CLAYER
  8
__-1
  9
$CELTYPE
  6
BYLAYER
  9
$CECOLOR
 62
   256
  9
$CELTSCALE
 40
1.0
  9
$DELOBJ
 70
     1
  9
$DISPSILH
 70
     0
  9
$DIMSCALE
 40
1.0
  9
$DIMASZ
 40
5.9996337890625
  9
$DIMEXO
 40
20.0
  9
$DIMDLI
 40
70.0
  9
$DIMRND
 40
0.0
  9
$DIMDLE
 40
0.0
  9
$DIMEXE
 40
0.0
  9
$DIMTP
 40
0.0
  9
$DIMTM
 40
0.0
  9
$DIMTXT
 40
21.24016203703704
  9
$DIMCEN
 40
0.0
  9
$DIMTSZ
 40
0.0
  9
$DIMTOL
 70
     0
  9
$DIMLIM
 70
     0
  9
$DIMTIH
 70
     0
  9
$DIMTOH
 70
     0
  9
$DIMSE1
 70
     0
  9
$DIMSE2
 70
     0
  9
$DIMTAD
 70
     1
  9
$DIMZIN
 70
     8
  9
$DIMBLK
  1
DOT
  9
$DIMASO
 70
     1
  9
$DIMSHO
 70
     1
  9
$DIMPOST
  1
<>
  9
$DIMAPOST
  1
[]
  9
$DIMALT
 70
     0
  9
$DIMALTD
 70
     3
  9
$DIMALTF
 40
0.0393700787401575
  9
$DIMLFAC
 40
1.0
  9
$DIMTOFL
 70
     1
  9
$DIMTVP
 40
0.0
  9
$DIMTIX
 70
     1
  9
$DIMSOXD
 70
     0
  9
$DIMSAH
 70
     0
  9
$DIMBLK1
  1
DOT
  9
$DIMBLK2
  1
DOT
  9
$DIMSTYLE
  2
TOOLBOX
  9
$DIMCLRD
 70
     0
  9
$DIMCLRE
 70
     0
  9
$DIMCLRT
 70
     0
  9
$DIMTFAC
 40
1.0
  9
$DIMGAP
 40
0.9999999999999999
  9
$DIMJUST
 70
     0
  9
$DIMSD1
 70
     0
  9
$DIMSD2
 70
     0
  9
$DIMTOLJ
 70
     1
  9
$DIMTZIN
 70
     8
  9
$DIMALTZ
 70
     8
  9
$DIMALTTZ
 70
     8
  9
$DIMFIT
 70
     0
  9
$DIMUPT
 70
     0
  9
$DIMUNIT
 70
     2
  9
$DIMDEC
 70
     1
  9
$DIMTDEC
 70
     1
  9
$DIMALTU
 70
     4
  9
$DIMALTTD
 70
     2
  9
$DIMTXSTY
  7
YUGOTHIC_MEDIUM
  9
$DIMAUNIT
 70
     0
  9
$LUNITS
 70
     2
  9
$LUPREC
 70
     1
  9
$SKETCHINC
 40
0.1
  9
$FILLETRAD
 40
0.0
  9
$AUNITS
 70
     0
  9
$AUPREC
 70
     0
  9
$MENU
  1
.
  9
$ELEVATION
 40
0.0
  9
$PELEVATION
 40
0.0
  9
$THICKNESS
 40
0.0
  9
$LIMCHECK
 70
     0
  9
$CHAMFERA
 40
0.0
  9
$CHAMFERB
 40
0.0
  9
$CHAMFERC
 40
0.0
  9
$CHAMFERD
 40
0.0
  9
$SKPOLY
 70
     0
  9
$TDCREATE
 40
2460647.700410405
  9
$TDUPDATE
 40
2460647.70051662
  9
$TDINDWG
 40
0.0000000116
  9
$TDUSRTIMER
 40
0.0000000116
  9
$USRTIMER
 70
     1
  9
$ANGBASE
 50
0.0
  9
$ANGDIR
 70
     0
  9
$PDMODE
 70
     1
  9
$PDSIZE
 40
-2.0
  9
$PLINEWID
 40
0.0
  9
$COORDS
 70
     1
  9
$SPLFRAME
 70
     0
  9
$SPLINETYPE
 70
     6
  9
$SPLINESEGS
 70
     8
  9
$ATTDIA
 70
     0
  9
$ATTREQ
 70
     1
  9
$HANDLING
 70
     1
  9
$HANDSEED
  5
30E2
  9
$SURFTAB1
 70
     6
  9
$SURFTAB2
 70
     6
  9
$SURFTYPE
 70
     6
  9
$SURFU
 70
     6
  9
$SURFV
 70
     6
  9
$UCSNAME
  2

  9
$UCSORG
 10
0.0
 20
0.0
 30
0.0
  9
$UCSXDIR
 10
1.0
 20
0.0
 30
0.0
  9
$UCSYDIR
 10
0.0
 20
1.0
 30
0.0
  9
$PUCSNAME
  2

  9
$PUCSORG
 10
0.0
 20
0.0
 30
0.0
  9
$PUCSXDIR
 10
1.0
 20
0.0
 30
0.0
  9
$PUCSYDIR
 10
0.0
 20
1.0
 30
0.0
  9
$USERI1
 70
     0
  9
$USERI2
 70
     0
  9
$USERI3
 70
     0
  9
$USERI4
 70
     0
  9
$USERI5
 70
     0
  9
$USERR1
 40
0.0
  9
$USERR2
 40
0.0
  9
$USERR3
 40
0.0
  9
$USERR4
 40
0.0
  9
$USERR5
 40
0.0
  9
$WORLDVIEW
 70
     1
  9
$SHADEDGE
 70
     3
  9
$SHADEDIF
 70
    70
  9
$TILEMODE
 70
     1
  9
$MAXACTVP
 70
    64
  9
$PINSBASE
 10
0.0
 20
0.0
 30
0.0
  9
$PLIMCHECK
 70
     0
  9
$PEXTMIN
 10
1.000000000000000E+20
 20
1.000000000000000E+20
 30
1.000000000000000E+20
  9
$PEXTMAX
 10
-1.000000000000000E+20
 20
-1.000000000000000E+20
 30
-1.000000000000000E+20
  9
$PLIMMIN
 10
-20.0
 20
-7.5
  9
$PLIMMAX
 10
277.0
 20
202.5
  9
$UNITMODE
 70
     0
  9
$VISRETAIN
 70
     1
  9
$PLINEGEN
 70
     0
  9
$PSLTSCALE
 70
     1
  9
$TREEDEPTH
 70
  3020
  9
$PICKSTYLE
 70
     1
  9
$CMLSTYLE
  2
STANDARD
  9
$CMLJUST
 70
     0
  9
$CMLSCALE
 40
1.0
  9
$SAVEIMAGES
 70
     1
  0
ENDSEC
  0
SECTION
  2
CLASSES
  0
CLASS
  1
ACDBDICTIONARYWDFLT
  2
AcDbDictionaryWithDefault
  3
ObjectDBX Classes
 90
    32768
280
     0
281
     0
  0
CLASS
  1
VISUALSTYLE
  2
AcDbVisualStyle
  3
ObjectDBX Classes
 90
     4095
280
     0
281
     0
  0
CLASS
  1
MATERIAL
  2
AcDbMaterial
  3
ObjectDBX Classes
 90
     1153
280
     0
281
     0
  0
CLASS
  1
SCALE
  2
AcDbScale
  3
ObjectDBX Classes
 90
     1153
280
     0
281
     0
  0
CLASS
  1
TABLESTYLE
  2
AcDbTableStyle
  3
ObjectDBX Classes
 90
     4095
280
     0
281
     0
  0
CLASS
  1
MLEADERSTYLE
  2
AcDbMLeaderStyle
  3
ACDB_MLEADERSTYLE_CLASS
 90
     4095
280
     0
281
     0
  0
CLASS
  1
SUN
  2
AcDbSun
  3
SCENEOE
 90
     1153
280
     0
281
     0
  0
CLASS
  1
WIPEOUTVARIABLES
  2
AcDbWipeoutVariables
  3
WipeOut|AutoCAD Express Tool|expresstools@autodesk.com
 90
        0
280
     0
281
     0
  0
CLASS
  1
RASTERVARIABLES
  2
AcDbRasterVariables
  3
ISM
 90
    32768
280
     0
281
     0
  0
CLASS
  1
DICTIONARYVAR
  2
AcDbDictionaryVar
  3
ObjectDBX Classes
 90
        0
280
     0
281
     0
  0
CLASS
  1
XRECORD
  2
AcDbXrecord
  3
ObjectDBX Classes
 90
    32768
280
     0
281
     0
  0
CLASS
  1
LWPOLYLINE
  2
AcDbPolyline
  3
ObjectDBX Classes
 90
    32768
280
     0
281
     1
  0
CLASS
  1
HATCH
  2
AcDbHatch
  3
ObjectDBX Classes
 90
    32768
280
     0
281
     1
  0
CLASS
  1
ACDBPLACEHOLDER
  2
AcDbPlaceHolder
  3
ObjectDBX Classes
 90
        0
280
     0
281
     0
  0
CLASS
  1
LAYOUT
  2
AcDbLayout
  3
ObjectDBX Classes
 90
        0
280
     0
281
     0
  0
ENDSEC
  0
SECTION
  2
TABLES
  0
TABLE
  2
VPORT
  5
8
330
0
100
AcDbSymbolTable
 70
     1
  0
VPORT
  5
29
330
8
100
AcDbSymbolTableRecord
100
AcDbViewportTableRecord
  2
*ACTIVE
 70
     0
 10
0.0
 20
0.0
 11
1.0
 21
1.0
 12
0.0000000000009095
 22
-23350.0
 13
0.0
 23
0.0
 14
0.5
 24
0.5
 15
0.5
 25
0.5
 16
0.0
 26
0.0
 36
1.0
 17
0.0
 27
0.0
 37
0.0
 40
3029.712
 41
1.426643192488263
 42
2000.0
 43
0.0
 44
0.0
 50
0.0
 51
0.0
 71
     0
 72
   100
 73
     1
 74
     3
 75
     0
 76
     0
 77
     0
 78
     0
  0
ENDTAB
  0
TABLE
  2
LTYPE
  5
5
330
0
100
AcDbSymbolTable
 70
    51
  0
LTYPE
  5
14
330
5
100
AcDbSymbolTableRecord
100
AcDbLinetypeTableRecord
  2
BYBLOCK
 70
     0
  3

 72
    65
 73
     0
 40
0.0
  0
LTYPE
  5
15
330
5
100
AcDbSymbolTableRecord
100
AcDbLinetypeTableRecord
  2
BYLAYER
 70
     0
  3

 72
    65
 73
     0
 40
0.0
  0
LTYPE
  5
16
330
5
100
AcDbSymbolTableRecord
100
AcDbLinetypeTableRecord
  2
CONTINUOUS
 70
     0
  3
Solid line
 72
    65
 73
     0
 40
0.0
  0
LTYPE
  5
104
330
5
100
AcDbSymbolTableRecord
100
AcDbLinetypeTableRecord
  2
______-13
 70
     0
  3

 72
    65
 73
     4
 40
5.079999999999999
 49
3.175
 74
     0
 49
-0.6349999999999998
 74
     0
 49
0.6349999999999998
 74
     0
 49
-0.6349999999999998
 74
     0
  0
LTYPE
  5
105
330
5
100
AcDbSymbolTableRecord
100
AcDbLinetypeTableRecord
  2
______-12
 70
     0
  3

 72
    65
 73
     4
 40
6.0
 49
0.9999999999999999
 74
     0
 49
-0.4999999999999999
 74
     0
 49
4.0
 74
     0
 49
-0.4999999999999998
 74
     0
  0
LTYPE
  5
106
330
5
100
AcDbSymbolTableRecord
100
AcDbLinetypeTableRecord
  2
______-11
 70
     0
  3

 72
    65
 73
     2
 40
1.5
 49
0.9999999999999999
 74
     0
 49
-0.4999999999999999
 74
     0
  0
LTYPE
  5
107
330
5
100
AcDbSymbolTableRecord
100
AcDbLinetypeTableRecord
  2
______-10
 70
     0
  3

 72
    65
 73
     6
 40
30.1625
 49
19.05
 74
     0
 49
-1.411147799999999
 74
     0
 49
3.527704400000002
 74
     0
 49
-1.411147799999999
 74
     0
 49
3.175
 74
     0
 49
-1.5875
 74
     0
  0
LTYPE
  5
108
330
5
100
AcDbSymbolTableRecord
100
AcDbLinetypeTableRecord
  2
______-9
 70
     0
  3

 72
    65
 73
     4
 40
25.4
 49
19.05
 74
     0
 49
-1.411147799999999
 74
     0
 49
3.527704400000002
 74
     0
 49
-1.411147799999999
 74
     0
  0
LTYPE
  5
109
330
5
100
AcDbSymbolTableRecord
100
AcDbLinetypeTableRecord
  2
______-8
 70
     0
  3

 72
    65
 73
     6
 40
6.35
 49
3.175
 74
     0
 49
-1.0580624
 74
     0
 49
0.3527044000000002
 74
     0
 49
-0.7057644000000001
 74
     0
 49
0.3527043999999995
 74
     0
 49
-0.7057644000000001
 74
     0
  0
LTYPE
  5
10A
330
5
100
AcDbSymbolTableRecord
100
AcDbLinetypeTableRecord
  2
______-7
 70
     0
  3

 72
    65
 73
     6
 40
9.524999999999999
 49
3.175
 74
     0
 49
-1.0580624
 74
     0
 49
3.175000000000001
 74
     0
 49
-1.0584688
 74
     0
 49
0.3527044000000002
 74
     0
 49
-0.7057643999999994
 74
     0
  0
LTYPE
  5
10B
330
5
100
AcDbSymbolTableRecord
100
AcDbLinetypeTableRecord
  2
______-6
 70
     0
  3

 72
    65
 73
     4
 40
5.2915312
 49
3.175
 74
     0
 49
-1.0580624
 74
     0
 49
0.3527044000000002
 74
     0
 49
-0.7057644000000001
 74
     0
  0
LTYPE
  5
10C
330
5
100
AcDbSymbolTableRecord
100
AcDbLinetypeTableRecord
  2
______-5
 70
     0
  3

 72
    65
 73
     2
 40
1.0580624
 49
0.352679
 74
     0
 49
-0.7053833999999999
 74
     0
  0
LTYPE
  5
10D
330
5
100
AcDbSymbolTableRecord
100
AcDbLinetypeTableRecord
  2
______-4
 70
     0
  3

 72
    65
 73
     2
 40
7.760766799999999
 49
6.702678999999999
 74
     0
 49
-1.0580878
 74
     0
  0
LTYPE
  5
10E
330
5
100
AcDbSymbolTableRecord
100
AcDbLinetypeTableRecord
  2
______-3
 70
     0
  3

 72
    65
 73
     2
 40
6.35
 49
5.2915312
 74
     0
 49
-1.0584688
 74
     0
  0
LTYPE
  5
10F
330
5
100
AcDbSymbolTableRecord
100
AcDbLinetypeTableRecord
  2
______-2
 70
     0
  3

 72
    65
 73
     2
 40
3.527679
 49
2.4692356
 74
     0
 49
-1.0584434
 74
     0
  0
LTYPE
  5
110
330
5
100
AcDbSymbolTableRecord
100
AcDbLinetypeTableRecord
  2
______-1
 70
     0
  3

 72
    65
 73
     2
 40
2.1165312
 49
1.0580624
 74
     0
 49
-1.0584688
 74
     0
  0
LTYPE
  5
111
330
5
100
AcDbSymbolTableRecord
100
AcDbLinetypeTableRecord
  2
ISO-02___
 70
     0
  3

 72
    65
 73
     2
 40
3.81
 49
3.048
 74
     0
 49
-0.7619999999999999
 74
     0
  0
LTYPE
  5
112
330
5
100
AcDbSymbolTableRecord
100
AcDbLinetypeTableRecord
  2
DOT_CENTER
 70
     0
  3

 72
    65
 73
     4
 40
28.0
 49
24.0
 74
     0
 49
-1.999999999999999
 74
     0
 49
0.0
 74
     0
 49
-2.000000000000002
 74
     0
  0
LTYPE
  5
113
330
5
100
AcDbSymbolTableRecord
100
AcDbLinetypeTableRecord
  2
DASHED
 70
     0
  3

 72
    65
 73
     2
 40
38.1
 49
30.48
 74
     0
 49
-7.620000000000001
 74
     0
  0
LTYPE
  5
114
330
5
100
AcDbSymbolTableRecord
100
AcDbLinetypeTableRecord
  2
DOT_CENTER-3
 70
     0
  3

 72
    65
 73
     4
 40
3.999999999999999
 49
2.5
 74
     0
 49
-0.4999999999999998
 74
     0
 49
0.4999999999999998
 74
     0
 49
-0.4999999999999998
 74
     0
  0
LTYPE
  5
115
330
5
100
AcDbSymbolTableRecord
100
AcDbLinetypeTableRecord
  2
DASHED-3
 70
     0
  3

 72
    65
 73
     2
 40
30.0
 49
24.0
 74
     0
 49
-5.999999999999997
 74
     0
  0
LTYPE
  5
116
330
5
100
AcDbSymbolTableRecord
100
AcDbLinetypeTableRecord
  2
PHANTOM
 70
     0
  3

 72
    65
 73
     6
 40
6.349999999999999
 49
3.174999999999999
 74
     0
 49
-0.6350000000000002
 74
     0
 49
0.6349999999999998
 74
     0
 49
-0.6349999999999998
 74
     0
 49
0.6349999999999998
 74
     0
 49
-0.6349999999999998
 74
     0
  0
LTYPE
  5
117
330
5
100
AcDbSymbolTableRecord
100
AcDbLinetypeTableRecord
  2
HIDDEN
 70
     0
  3

 72
    65
 73
     2
 40
0.9525000000000001
 49
0.635
 74
     0
 49
-0.3175000000000001
 74
     0
  0
LTYPE
  5
118
330
5
100
AcDbSymbolTableRecord
100
AcDbLinetypeTableRecord
  2
PHANTOM-2
 70
     0
  3

 72
    65
 73
     6
 40
6.349999999999999
 49
3.174999999999999
 74
     0
 49
-0.6350000000000002
 74
     0
 49
0.6349999999999998
 74
     0
 49
-0.6349999999999998
 74
     0
 49
0.6349999999999998
 74
     0
 49
-0.6349999999999998
 74
     0
  0
LTYPE
  5
119
330
5
100
AcDbSymbolTableRecord
100
AcDbLinetypeTableRecord
  2
HIDDEN-2
 70
     0
  3

 72
    65
 73
     2
 40
0.9525000000000001
 49
0.635
 74
     0
 49
-0.3175000000000001
 74
     0
  0
LTYPE
  5
11A
330
5
100
AcDbSymbolTableRecord
100
AcDbLinetypeTableRecord
  2
CENTER-2
 70
     0
  3

 72
    65
 73
     4
 40
5.079999999999999
 49
3.174999999999999
 74
     0
 49
-0.6350000000000002
 74
     0
 49
0.6349999999999998
 74
     0
 49
-0.6349999999999998
 74
     0
  0
LTYPE
  5
11B
330
5
100
AcDbSymbolTableRecord
100
AcDbLinetypeTableRecord
  2
ISO-08_____
 70
     0
  3

 72
    65
 73
     4
 40
9.143999999999998
 49
6.095999999999999
 74
     0
 49
-0.7620000000000007
 74
     0
 49
1.524
 74
     0
 49
-0.7619999999999992
 74
     0
  0
LTYPE
  5
11C
330
5
100
AcDbSymbolTableRecord
100
AcDbLinetypeTableRecord
  2
CENTERX2
 70
     0
  3

 72
    65
 73
     4
 40
10.16
 49
6.349999999999999
 74
     0
 49
-1.27
 74
     0
 49
1.27
 74
     0
 49
-1.27
 74
     0
  0
LTYPE
  5
11D
330
5
100
AcDbSymbolTableRecord
100
AcDbLinetypeTableRecord
  2
VW-01____
 70
     0
  3

 72
    65
 73
     2
 40
2.1161248
 49
1.0580624
 74
     0
 49
-1.0580624
 74
     0
  0
LTYPE
  5
11E
330
5
100
AcDbSymbolTableRecord
100
AcDbLinetypeTableRecord
  2
DASHED-2
 70
     0
  3

 72
    65
 73
     2
 40
30.0
 49
24.0
 74
     0
 49
-5.999999999999997
 74
     0
  0
LTYPE
  5
11F
330
5
100
AcDbSymbolTableRecord
100
AcDbLinetypeTableRecord
  2
DOT_CENTER-5
 70
     0
  3

 72
    65
 73
     4
 40
3.999999999999999
 49
2.5
 74
     0
 49
-0.4999999999999998
 74
     0
 49
0.4999999999999998
 74
     0
 49
-0.4999999999999998
 74
     0
  0
LTYPE
  5
120
330
5
100
AcDbSymbolTableRecord
100
AcDbLinetypeTableRecord
  2
LONG_DASHED
 70
     0
  3

 72
    65
 73
     2
 40
4.0
 49
3.0
 74
     0
 49
-0.9999999999999999
 74
     0
  0
LTYPE
  5
121
330
5
100
AcDbSymbolTableRecord
100
AcDbLinetypeTableRecord
  2
PHANTOM-3
 70
     0
  3

 72
    65
 73
     6
 40
4.999999999999998
 49
2.5
 74
     0
 49
-0.4999999999999998
 74
     0
 49
0.4999999999999998
 74
     0
 49
-0.4999999999999998
 74
     0
 49
0.4999999999999998
 74
     0
 49
-0.4999999999999998
 74
     0
  0
LTYPE
  5
122
330
5
100
AcDbSymbolTableRecord
100
AcDbLinetypeTableRecord
  2
LONG_DASHED-2
 70
     0
  3

 72
    65
 73
     2
 40
4.0
 49
3.0
 74
     0
 49
-0.9999999999999999
 74
     0
  0
LTYPE
  5
123
330
5
100
AcDbSymbolTableRecord
100
AcDbLinetypeTableRecord
  2
DOT_CENTER-6
 70
     0
  3

 72
    65
 73
     4
 40
3.999999999999999
 49
2.5
 74
     0
 49
-0.4999999999999998
 74
     0
 49
0.4999999999999998
 74
     0
 49
-0.4999999999999998
 74
     0
  0
LTYPE
  5
124
330
5
100
AcDbSymbolTableRecord
100
AcDbLinetypeTableRecord
  2
DOT_CENTER-2
 70
     0
  3

 72
    65
 73
     4
 40
7.0
 49
6.0
 74
     0
 49
-0.4999999999999998
 74
     0
 49
0.0
 74
     0
 49
-0.5000000000000004
 74
     0
  0
LTYPE
  5
125
330
5
100
AcDbSymbolTableRecord
100
AcDbLinetypeTableRecord
  2
DOT_CENTER-4
 70
     0
  3

 72
    65
 73
     4
 40
28.0
 49
24.0
 74
     0
 49
-1.999999999999999
 74
     0
 49
0.0
 74
     0
 49
-2.000000000000002
 74
     0
  0
LTYPE
  5
126
330
5
100
AcDbSymbolTableRecord
100
AcDbLinetypeTableRecord
  2
ACAD_ISO03W100
 70
     0
  3

 72
    65
 73
     2
 40
101.6
 49
59.99999999999999
 74
     0
 49
-41.6
 74
     0
  0
LTYPE
  5
127
330
5
100
AcDbSymbolTableRecord
100
AcDbLinetypeTableRecord
  2
CENTER2
 70
     0
  3

 72
    65
 73
     4
 40
5.625
 49
3.75
 74
     0
 49
-0.6249999999999996
 74
     0
 49
0.6250000000000002
 74
     0
 49
-0.6250000000000002
 74
     0
  0
LTYPE
  5
128
330
5
100
AcDbSymbolTableRecord
100
AcDbLinetypeTableRecord
  2
ACAD_ISO08W100
 70
     0
  3

 72
    65
 73
     2
 40
101.6
 49
101.6
 74
     0
 49
0.0
 74
     0
  0
LTYPE
  5
129
330
5
100
AcDbSymbolTableRecord
100
AcDbLinetypeTableRecord
  2
PHANTOM-4
 70
     0
  3

 72
    65
 73
     6
 40
12.5
 49
6.249999999999999
 74
     0
 49
-1.25
 74
     0
 49
1.249999999999999
 74
     0
 49
-1.25
 74
     0
 49
1.25
 74
     0
 49
-1.25
 74
     0
  0
LTYPE
  5
12A
330
5
100
AcDbSymbolTableRecord
100
AcDbLinetypeTableRecord
  2
ISO-12______
 70
     0
  3

 72
    65
 73
     6
 40
5.588
 49
3.048
 74
     0
 49
-0.7619999999999999
 74
     0
 49
0.1270000000000001
 74
     0
 49
-0.7619999999999999
 74
     0
 49
0.1270000000000001
 74
     0
 49
-0.7619999999999999
 74
     0
  0
LTYPE
  5
12B
330
5
100
AcDbSymbolTableRecord
100
AcDbLinetypeTableRecord
  2
ISO-07___
 70
     0
  3

 72
    65
 73
     2
 40
0.8889999999999999
 49
0.127
 74
     0
 49
-0.7619999999999998
 74
     0
  0
LTYPE
  5
12C
330
5
100
AcDbSymbolTableRecord
100
AcDbLinetypeTableRecord
  2
_____-6
 70
     0
  3

 72
    65
 73
     4
 40
5.2915312
 49
3.175
 74
     0
 49
-1.0580624
 74
     0
 49
0.3527044000000002
 74
     0
 49
-0.7057644000000001
 74
     0
  0
LTYPE
  5
12D
330
5
100
AcDbSymbolTableRecord
100
AcDbLinetypeTableRecord
  2
ISO-06______
 70
     0
  3

 72
    65
 73
     8
 40
9.525000000000002
 49
6.095999999999999
 74
     0
 49
-0.7620000000000007
 74
     0
 49
0.1270000000000001
 74
     0
 49
-0.7620000000000007
 74
     0
 49
0.1270000000000001
 74
     0
 49
-0.7620000000000007
 74
     0
 49
0.1270000000000001
 74
     0
 49
-0.7620000000000007
 74
     0
  0
LTYPE
  5
12E
330
5
100
AcDbSymbolTableRecord
100
AcDbLinetypeTableRecord
  2
ISO-08_____-1
 70
     0
  3

 72
    65
 73
     4
 40
1.8288
 49
1.2192
 74
     0
 49
-0.1524000000000001
 74
     0
 49
0.3047999999999999
 74
     0
 49
-0.1523999999999998
 74
     0
  0
LTYPE
  5
12F
330
5
100
AcDbSymbolTableRecord
100
AcDbLinetypeTableRecord
  2
DASHDOTX2
 70
     0
  3

 72
    65
 73
     4
 40
30.48
 49
15.24
 74
     0
 49
-7.620000000000001
 74
     0
 49
0.0152399999999983
 74
     0
 49
-7.604760000000002
 74
     0
  0
LTYPE
  5
130
330
5
100
AcDbSymbolTableRecord
100
AcDbLinetypeTableRecord
  2
ISO-04______
 70
     0
  3

 72
    65
 73
     4
 40
7.747000000000001
 49
6.095999999999999
 74
     0
 49
-0.7620000000000007
 74
     0
 49
0.1270000000000001
 74
     0
 49
-0.7620000000000007
 74
     0
  0
LTYPE
  5
131
330
5
100
AcDbSymbolTableRecord
100
AcDbLinetypeTableRecord
  2
UQ______01_____
 70
     0
  3

 72
    65
 73
     4
 40
6.8
 49
4.5
 74
     0
 49
-0.9999999999999996
 74
     0
 49
0.3000000000000002
 74
     0
 49
-1.0
 74
     0
  0
LTYPE
  5
132
330
5
100
AcDbSymbolTableRecord
100
AcDbLinetypeTableRecord
  2
CENTER
 70
     0
  3

 72
    65
 73
     4
 40
5.079999999999999
 49
3.174999999999999
 74
     0
 49
-0.6350000000000002
 74
     0
 49
0.6349999999999998
 74
     0
 49
-0.6349999999999998
 74
     0
  0
LTYPE
  5
133
330
5
100
AcDbSymbolTableRecord
100
AcDbLinetypeTableRecord
  2
PHL_CENTER-2
 70
     0
  3

 72
    65
 73
     2
 40
3.8625
 49
2.06
 74
     0
 49
-1.8025
 74
     0
  0
LTYPE
  5
134
330
5
100
AcDbSymbolTableRecord
100
AcDbLinetypeTableRecord
  2
PHL_CENTER-3
 70
     0
  3

 72
    65
 73
     2
 40
11.64375
 49
6.21
 74
     0
 49
-5.43375
 74
     0
  0
LTYPE
  5
135
330
5
100
AcDbSymbolTableRecord
100
AcDbLinetypeTableRecord
  2
VW-02____
 70
     0
  3

 72
    65
 73
     2
 40
3.527298
 49
2.4692356
 74
     0
 49
-1.0580624
 74
     0
  0
ENDTAB
  0
TABLE
  2
LAYER
  5
2
330
0
100
AcDbSymbolTable
 70
     9
  0
LAYER
  5
10
330
2
100
AcDbSymbolTableRecord
100
AcDbLayerTableRecord
  2
0
 70
     0
 62
     7
  6
CONTINUOUS
  0
LAYER
  5
137
330
2
100
AcDbSymbolTableRecord
100
AcDbLayerTableRecord
  2
____-7
 70
     0
 62
     7
  6
CONTINUOUS
1001
ACCMTRANSPARENCY
1071
 33554687
1001
ACAECLAYERSTANDARD
1000

1000

  0
LAYER
  5
138
330
2
100
AcDbSymbolTableRecord
100
AcDbLayerTableRecord
  2
__
 70
     0
 62
     7
  6
CONTINUOUS
1001
ACCMTRANSPARENCY
1071
 33554687
1001
ACAECLAYERSTANDARD
1000

1000

  0
LAYER
  5
139
330
2
100
AcDbSymbolTableRecord
100
AcDbLayerTableRecord
  2
__-1
 70
     0
 62
     7
  6
CONTINUOUS
1001
ACCMTRANSPARENCY
1071
 33554687
1001
ACAECLAYERSTANDARD
1000

1000

  0
LAYER
  5
13D
330
2
100
AcDbSymbolTableRecord
100
AcDbLayerTableRecord
  2
_-0_25____
 70
     0
 62
     7
  6
CONTINUOUS
1001
ACCMTRANSPARENCY
1071
 33554687
1001
ACAECLAYERSTANDARD
1000

1000

  0
LAYER
  5
13E
330
2
100
AcDbSymbolTableRecord
100
AcDbLayerTableRecord
  2
_-0_18
 70
     0
 62
     7
  6
CONTINUOUS
1001
ACCMTRANSPARENCY
1071
 33554687
1001
ACAECLAYERSTANDARD
1000

1000

  0
LAYER
  5
140
330
2
100
AcDbSymbolTableRecord
100
AcDbLayerTableRecord
  2
__-0_05
 70
     0
 62
     7
  6
CONTINUOUS
1001
ACCMTRANSPARENCY
1071
 33554687
1001
ACAECLAYERSTANDARD
1000

1000

  0
LAYER
  5
141
330
2
100
AcDbSymbolTableRecord
100
AcDbLayerTableRecord
  2
__-_____
 70
     0
 62
    95
  6
VW-01____
1001
ACCMTRANSPARENCY
1071
 33554687
1001
ACAECLAYERSTANDARD
1000

1000

  0
LAYER
  5
145
330
2
100
AcDbSymbolTableRecord
100
AcDbLayerTableRecord
  2
DEFPOINTS
 70
     0
 62
     7
  6
CONTINUOUS
  0
ENDTAB
  0
TABLE
  2
STYLE
  5
3
330
0
100
AcDbSymbolTable
 70
     4
  0
STYLE
  5
11
330
3
100
AcDbSymbolTableRecord
100
AcDbTextStyleTableRecord
  2
STANDARD
 70
     0
 40
0.0
 41
1.0
 50
0.0
 71
     0
 42
0.2
  3
txt
  4
BIGFONT.SHX
  0
STYLE
  5
61
330
3
100
AcDbSymbolTableRecord
100
AcDbTextStyleTableRecord
  2
YUGOTHIC_MEDIUM
 70
     0
 40
0.0
 41
1.0
 50
0.0
 71
     0
 42
0.2
  3

  4
YuGothic Medium
1001
ACAD
1000
YuGothic Medium
1071
        0
  0
STYLE
  5
65
330
3
100
AcDbSymbolTableRecord
100
AcDbTextStyleTableRecord
  2
YUGOTHIC_BOLD
 70
     0
 40
0.0
 41
1.0
 50
0.0
 71
     0
 42
0.2
  3

  4
YuGothic Bold
1001
ACAD
1000
YuGothic Bold
1071
        0
  0
STYLE
  5
66
330
3
100
AcDbSymbolTableRecord
100
AcDbTextStyleTableRecord
  2
YUGOTHIC_BOLD-B
 70
     0
 40
0.0
 41
1.0
 50
0.0
 71
     0
 42
0.2
  3

  4
YuGothic Bold
1001
ACAD
1000
YuGothic Bold
1071
 33554432
  0
ENDTAB
  0
TABLE
  2
VIEW
  5
6
330
0
100
AcDbSymbolTable
 70
     0
  0
ENDTAB
  0
TABLE
  2
UCS
  5
7
330
0
100
AcDbSymbolTable
 70
     0
  0
ENDTAB
  0
TABLE
  2
APPID
  5
9
330
0
100
AcDbSymbolTable
 70
     4
  0
APPID
  5
12
330
9
100
AcDbSymbolTableRecord
100
AcDbRegAppTableRecord
  2
ACAD
 70
     0
  0
APPID
  5
FB
330
9
100
AcDbSymbolTableRecord
100
AcDbRegAppTableRecord
  2
ACCMTRANSPARENCY
 70
     0
  0
APPID
  5
FC
330
9
100
AcDbSymbolTableRecord
100
AcDbRegAppTableRecord
  2
ACAECLAYERSTANDARD
 70
     0
  0
APPID
  5
30E0
330
9
100
AcDbSymbolTableRecord
100
AcDbRegAppTableRecord
  2
ACAD_MLEADERVER
 70
     0
  0
ENDTAB
  0
TABLE
  2
DIMSTYLE
  5
A
330
0
100
AcDbSymbolTable
 70
     2
  0
DIMSTYLE
105
27
330
A
100
AcDbSymbolTableRecord
100
AcDbDimStyleTableRecord
  2
STANDARD
 70
     0
  3

  4

  5

  6

  7

 40
1.0
 41
0.18
 42
0.0625
 43
0.38
 44
0.18
 45
0.0
 46
0.0
 47
0.0
 48
0.0
140
0.18
141
0.09
142
0.0
143
25.4
144
1.0
145
0.0
146
1.0
147
0.09
 71
     0
 72
     0
 73
     1
 74
     1
 75
     0
 76
     0
 77
     0
 78
     0
170
     0
171
     2
172
     0
173
     0
174
     0
175
     0
176
     0
177
     0
178
     0
270
     2
271
     4
272
     4
273
     2
274
     2
340
11
275
     0
280
     0
281
     0
282
     0
283
     1
284
     0
285
     0
286
     0
287
     3
288
     0
  0
DIMSTYLE
105
146
102
{ACAD_REACTORS
330
305F
330
3062
330
3063
330
3066
330
3067
330
306A
330
306B
330
306E
330
306F
330
3072
330
3073
330
3076
330
3077
330
307A
330
307B
330
307E
330
307F
330
3080
330
3081
330
3082
330
3083
330
3086
330
3087
330
308A
330
308B
330
308E
330
3093
330
3096
330
3097
330
309A
330
309B
330
309C
330
309F
330
30A0
330
30A1
330
30A2
330
30A3
330
30A4
330
30B2
330
30B5
330
30B6
330
30B7
330
30B8
330
30B9
102
}
330
A
100
AcDbSymbolTableRecord
100
AcDbDimStyleTableRecord
  2
TOOLBOX
 70
     0
  3
<>
  4
[]
  5
DOT
  6
DOT
  7
DOT
 40
1.0
 41
5.9996337890625
 42
20.0
 43
70.0
 44
0.0
 45
0.0
 46
0.0
 47
0.0
 48
0.0
140
21.24016203703704
141
0.0
142
0.0
143
0.0393700787401575
144
1.0
145
0.0
146
1.0
147
0.9999999999999999
 71
     0
 72
     0
 73
     0
 74
     0
 75
     0
 76
     0
 77
     1
 78
     8
170
     0
171
     3
172
     1
173
     0
174
     1
175
     0
176
     0
177
     0
178
     0
270
     2
271
     1
272
     1
273
     4
274
     2
340
61
275
     0
280
     0
281
     0
282
     0
283
     1
284
     8
285
     8
286
     8
288
     0
  0
ENDTAB
  0
TABLE
  2
BLOCK_RECORD
  5
1
330
0
100
AcDbSymbolTable
 70
    53
  0
BLOCK_RECORD
  5
1F
330
1
100
AcDbSymbolTableRecord
100
AcDbBlockTableRecord
  2
*MODEL_SPACE
  0
BLOCK_RECORD
  5
1B
330
1
100
AcDbSymbolTableRecord
100
AcDbBlockTableRecord
  2
*PAPER_SPACE
  0
BLOCK_RECORD
  5
5E
330
1
100
AcDbSymbolTableRecord
100
AcDbBlockTableRecord
  2
____
  0
BLOCK_RECORD
  5
62
330
1
100
AcDbSymbolTableRecord
100
AcDbBlockTableRecord
  2
____-1
  0
BLOCK_RECORD
  5
67
330
1
100
AcDbSymbolTableRecord
100
AcDbBlockTableRecord
  2
____-2
  0
BLOCK_RECORD
  5
6A
330
1
100
AcDbSymbolTableRecord
100
AcDbBlockTableRecord
  2
*D4
  0
BLOCK_RECORD
  5
6D
330
1
100
AcDbSymbolTableRecord
100
AcDbBlockTableRecord
  2
*D5
  0
BLOCK_RECORD
  5
70
330
1
100
AcDbSymbolTableRecord
100
AcDbBlockTableRecord
  2
*D6
  0
BLOCK_RECORD
  5
73
330
1
100
AcDbSymbolTableRecord
100
AcDbBlockTableRecord
  2
*D7
  0
BLOCK_RECORD
  5
76
330
1
100
AcDbSymbolTableRecord
100
AcDbBlockTableRecord
  2
*D8
  0
BLOCK_RECORD
  5
79
330
1
100
AcDbSymbolTableRecord
100
AcDbBlockTableRecord
  2
*D9
  0
BLOCK_RECORD
  5
7C
330
1
100
AcDbSymbolTableRecord
100
AcDbBlockTableRecord
  2
*D10
  0
BLOCK_RECORD
  5
7F
330
1
100
AcDbSymbolTableRecord
100
AcDbBlockTableRecord
  2
*D11
  0
BLOCK_RECORD
  5
82
330
1
100
AcDbSymbolTableRecord
100
AcDbBlockTableRecord
  2
*D12
  0
BLOCK_RECORD
  5
85
330
1
100
AcDbSymbolTableRecord
100
AcDbBlockTableRecord
  2
*D13
  0
BLOCK_RECORD
  5
88
330
1
100
AcDbSymbolTableRecord
100
AcDbBlockTableRecord
  2
*D14
  0
BLOCK_RECORD
  5
8B
330
1
100
AcDbSymbolTableRecord
100
AcDbBlockTableRecord
  2
*D15
  0
BLOCK_RECORD
  5
8E
330
1
100
AcDbSymbolTableRecord
100
AcDbBlockTableRecord
  2
*D16
  0
BLOCK_RECORD
  5
91
330
1
100
AcDbSymbolTableRecord
100
AcDbBlockTableRecord
  2
*D17
  0
BLOCK_RECORD
  5
94
330
1
100
AcDbSymbolTableRecord
100
AcDbBlockTableRecord
  2
*D18
  0
BLOCK_RECORD
  5
97
330
1
100
AcDbSymbolTableRecord
100
AcDbBlockTableRecord
  2
*D19
  0
BLOCK_RECORD
  5
9A
330
1
100
AcDbSymbolTableRecord
100
AcDbBlockTableRecord
  2
*D20
  0
BLOCK_RECORD
  5
9D
330
1
100
AcDbSymbolTableRecord
100
AcDbBlockTableRecord
  2
*D21
  0
BLOCK_RECORD
  5
A0
330
1
100
AcDbSymbolTableRecord
100
AcDbBlockTableRecord
  2
*D22
  0
BLOCK_RECORD
  5
A3
330
1
100
AcDbSymbolTableRecord
100
AcDbBlockTableRecord
  2
*D23
  0
BLOCK_RECORD
  5
A6
330
1
100
AcDbSymbolTableRecord
100
AcDbBlockTableRecord
  2
*D24
  0
BLOCK_RECORD
  5
A9
330
1
100
AcDbSymbolTableRecord
100
AcDbBlockTableRecord
  2
*D25
  0
BLOCK_RECORD
  5
AC
330
1
100
AcDbSymbolTableRecord
100
AcDbBlockTableRecord
  2
*D26
  0
BLOCK_RECORD
  5
AF
330
1
100
AcDbSymbolTableRecord
100
AcDbBlockTableRecord
  2
*D27
  0
BLOCK_RECORD
  5
B2
330
1
100
AcDbSymbolTableRecord
100
AcDbBlockTableRecord
  2
*D28
  0
BLOCK_RECORD
  5
B5
330
1
100
AcDbSymbolTableRecord
100
AcDbBlockTableRecord
  2
*D29
  0
BLOCK_RECORD
  5
B8
330
1
100
AcDbSymbolTableRecord
100
AcDbBlockTableRecord
  2
*D30
  0
BLOCK_RECORD
  5
BB
330
1
100
AcDbSymbolTableRecord
100
AcDbBlockTableRecord
  2
*D31
  0
BLOCK_RECORD
  5
BE
330
1
100
AcDbSymbolTableRecord
100
AcDbBlockTableRecord
  2
*D32
  0
BLOCK_RECORD
  5
C1
330
1
100
AcDbSymbolTableRecord
100
AcDbBlockTableRecord
  2
*D33
  0
BLOCK_RECORD
  5
C4
330
1
100
AcDbSymbolTableRecord
100
AcDbBlockTableRecord
  2
*D34
  0
BLOCK_RECORD
  5
C7
330
1
100
AcDbSymbolTableRecord
100
AcDbBlockTableRecord
  2
*D35
  0
BLOCK_RECORD
  5
CA
330
1
100
AcDbSymbolTableRecord
100
AcDbBlockTableRecord
  2
*D36
  0
BLOCK_RECORD
  5
CD
330
1
100
AcDbSymbolTableRecord
100
AcDbBlockTableRecord
  2
*D37
  0
BLOCK_RECORD
  5
D0
330
1
100
AcDbSymbolTableRecord
100
AcDbBlockTableRecord
  2
*D38
  0
BLOCK_RECORD
  5
D3
330
1
100
AcDbSymbolTableRecord
100
AcDbBlockTableRecord
  2
*D39
  0
BLOCK_RECORD
  5
D6
330
1
100
AcDbSymbolTableRecord
100
AcDbBlockTableRecord
  2
*D40
  0
BLOCK_RECORD
  5
D9
330
1
100
AcDbSymbolTableRecord
100
AcDbBlockTableRecord
  2
*D41
  0
BLOCK_RECORD
  5
DC
330
1
100
AcDbSymbolTableRecord
100
AcDbBlockTableRecord
  2
____-3
  0
BLOCK_RECORD
  5
DF
330
1
100
AcDbSymbolTableRecord
100
AcDbBlockTableRecord
  2
____-4
  0
BLOCK_RECORD
  5
E2
330
1
100
AcDbSymbolTableRecord
100
AcDbBlockTableRecord
  2
____-5
  0
BLOCK_RECORD
  5
E5
330
1
100
AcDbSymbolTableRecord
100
AcDbBlockTableRecord
  2
*D45
  0
BLOCK_RECORD
  5
E8
330
1
100
AcDbSymbolTableRecord
100
AcDbBlockTableRecord
  2
*D46
  0
BLOCK_RECORD
  5
EB
330
1
100
AcDbSymbolTableRecord
100
AcDbBlockTableRecord
  2
*D47
  0
BLOCK_RECORD
  5
EE
330
1
100
AcDbSymbolTableRecord
100
AcDbBlockTableRecord
  2
*D48
  0
BLOCK_RECORD
  5
F1
330
1
100
AcDbSymbolTableRecord
100
AcDbBlockTableRecord
  2
*D49
  0
BLOCK_RECORD
  5
F4
330
1
100
AcDbSymbolTableRecord
100
AcDbBlockTableRecord
  2
*D50
  0
BLOCK_RECORD
  5
F7
330
1
100
AcDbSymbolTableRecord
100
AcDbBlockTableRecord
  2
_1_10_2D
  0
BLOCK_RECORD
  5
FD
330
1
100
AcDbSymbolTableRecord
100
AcDbBlockTableRecord
  2
____-6
  0
BLOCK_RECORD
  5
147
330
1
100
AcDbSymbolTableRecord
100
AcDbBlockTableRecord
  2
_DOT
  0
ENDTAB
  0
ENDSEC
  0
SECTION
  2
BLOCKS
  0
BLOCK
  5
20
330
1F
100
AcDbEntity
  8
0
100
AcDbBlockBegin
  2
*MODEL_SPACE
 70
     0
 10
0.0
 20
0.0
 30
0.0
  3
*MODEL_SPACE
  1

  0
ENDBLK
  5
21
330
1F
100
AcDbEntity
  8
0
100
AcDbBlockEnd
  0
BLOCK
  5
1C
330
1B
100
AcDbEntity
 67
     1
  8
0
100
AcDbBlockBegin
  2
*PAPER_SPACE
 70
     0
 10
0.0
 20
0.0
 30
0.0
  3
*PAPER_SPACE
  1

  0
ENDBLK
  5
1D
330
1B
100
AcDbEntity
 67
     1
  8
0
100
AcDbBlockEnd
  0
BLOCK
  5
5F
330
5E
100
AcDbEntity
  8
0
100
AcDbBlockBegin
  2
____
 70
     0
 10
0.0
 20
0.0
 30
0.0
  3
____
  1

  0
SPLINE
  5
14C
330
5E
100
AcDbEntity
  8
__-1
 62
     2
100
AcDbSpline
210
0.0
220
0.0
230
1.0
 70
    11
 71
     2
 72
    45
 73
    42
 74
     0
 42
0.000000001
 43
0.0000000000001
 40
0.0
 40
0.0
 40
0.0
 40
0.0152960331877386
 40
0.0152960331877386
 40
0.0267678963700699
 40
0.0267678963700699
 40
0.0334808146074971
 40
0.0334808146074971
 40
0.0602224334306256
 40
0.0602224334306256
 40
0.0831324238728237
 40
0.0831324238728237
 40
0.0964455897795606
 40
0.0964455897795606
 40
0.1117416229672993
 40
0.1117416229672993
 40
0.1250547888740363
 40
0.1250547888740363
 40
0.1684952971410859
 40
0.1735790167402282
 40
0.1786627363393715
 40
0.1786627363393715
 40
0.1836386230515976
 40
0.1886145097638238
 40
0.1935903964760479
 40
0.1985662831882721
 40
0.1985662831882721
 40
0.2038642238283811
 40
0.2091621644684827
 40
0.2091621644684827
 40
0.290927158205025
 40
0.290927158205025
 40
0.342813834585501
 40
0.342813834585501
 40
0.4201940929310894
 40
0.4975743512766669
 40
0.4975743512766669
 40
0.5476557061059177
 40
0.5977370609351685
 40
0.9256518519725193
 40
0.9256518519725193
 40
1.0
 40
1.0
 40
1.0
 10
-199.4681658814934
 20
-141.021205255474
 30
0.0
 10
-199.4681658814934
 20
-140.6827894344488
 30
0.0
 10
-199.4681658814934
 20
-140.3443736134237
 30
0.0
 10
-199.2143575934303
 20
-140.3443736134237
 30
0.0
 10
-198.9605493053672
 20
-140.3443736134237
 30
0.0
 10
-198.9605493053672
 20
-140.19585420915
 30
0.0
 10
-198.9605493053672
 20
-140.0473348048763
 30
0.0
 10
-198.4897777686807
 20
-139.6889840206498
 30
0.0
 10
-198.0190062319942
 20
-139.3306332364232
 30
0.0
 10
-198.0190062319942
 20
-139.8375034249235
 30
0.0
 10
-198.0190062319942
 20
-140.3443736134237
 30
0.0
 10
-197.7244601941114
 20
-140.3443736134237
 30
0.0
 10
-197.4299141562286
 20
-140.3443736134237
 30
0.0
 10
-197.4299141562286
 20
-140.6827894344488
 30
0.0
 10
-197.4299141562286
 20
-141.021205255474
 30
0.0
 10
-197.7244601941114
 20
-141.021205255474
 30
0.0
 10
-198.0190062319942
 20
-141.021205255474
 30
0.0
 10
-198.0190062319943
 20
-141.982301187374
 30
0.0
 10
-198.0190062319942
 20
-143.0558714530366
 30
0.0
 10
-197.9919143962678
 20
-143.1946930084079
 30
0.0
 10
-197.9627512100639
 20
-143.222050906223
 30
0.0
 10
-197.9348147633237
 20
-143.2494623734484
 30
0.0
 10
-197.761560581067
 20
-143.2768774119678
 30
0.0
 10
-197.5946490168237
 20
-143.2768774119678
 30
0.0
 10
-197.5490668067927
 20
-143.2765452816242
 30
0.0
 10
-197.5254748391142
 20
-143.2755488905936
 30
0.0
 10
-197.5003400724594
 20
-143.2749756979039
 30
0.0
 10
-197.4528525771186
 20
-143.271977596577
 30
0.0
 10
-197.4299141562286
 20
-143.2698348201669
 30
0.0
 10
-197.4299141562286
 20
-143.6253928524724
 30
0.0
 10
-197.4299141562286
 20
-143.9809508847778
 30
0.0
 10
-197.6553699418093
 20
-143.9898434068795
 30
0.0
 10
-197.8808257273897
 20
-143.9987359289811
 30
0.0
 10
-198.2171505472718
 20
-144.0093051736236
 30
0.0
 10
-198.6773742673464
 20
-143.8929059877364
 30
0.0
 10
-198.8008838965007
 20
-143.7645804654803
 30
0.0
 10
-198.8815540693597
 20
-143.6822389249836
 30
0.0
 10
-198.9605493053672
 20
-143.4310305325529
 30
0.0
 10
-198.9605493053672
 20
-142.1406345076054
 30
0.0
 10
-198.9605493053672
 20
-141.021205255474
 30
0.0
 10
-199.2143575934303
 20
-141.021205255474
 30
0.0
 10
-199.4681658814934
 20
-141.021205255474
 30
0.0
  0
SPLINE
  5
14D
330
5E
100
AcDbEntity
  8
__-1
 62
     2
100
AcDbSpline
210
0.0
220
0.0
230
1.0
 70
    11
 71
     2
 72
    24
 73
    21
 74
     0
 42
0.000000001
 43
0.0000000000001
 40
0.0
 40
0.0
 40
0.0
 40
0.0625371681219629
 40
0.1250743362439259
 40
0.1876115043658888
 40
0.2501486724878571
 40
0.2501486724878571
 40
0.3125862087443795
 40
0.3750237450009067
 40
0.4374612812574394
 40
0.4998988175139673
 40
0.4998988175139673
 40
0.5622904901897634
 40
0.6246821628655574
 40
0.6870738355413516
 40
0.7494655082171423
 40
0.7494655082171423
 40
0.812099131162859
 40
0.8747327541085766
 40
0.9373663770542887
 40
1.0
 40
1.0
 40
1.0
 10
-194.1290457484219
 20
-143.5023117754799
 30
0.0
 10
-194.3583656740309
 20
-143.7869528368481
 30
0.0
 10
-195.0571839700417
 20
-144.0709332088233
 30
0.0
 10
-195.994776939127
 20
-144.0709332088233
 30
0.0
 10
-196.6930276526083
 20
-143.7869528368481
 30
0.0
 10
-196.9235475329766
 20
-143.5023117754799
 30
0.0
 10
-197.1540459855814
 20
-143.218404615032
 30
0.0
 10
-197.3847872861732
 20
-142.535460703272
 30
0.0
 10
-197.3847872861732
 20
-141.742563791325
 30
0.0
 10
-197.1540459855814
 20
-141.0588806217035
 30
0.0
 10
-196.9235475329766
 20
-140.7710789651304
 30
0.0
 10
-196.6930276526083
 20
-140.483641580547
 30
0.0
 10
-195.994776939127
 20
-140.1952792308133
 30
0.0
 10
-195.0571839700417
 20
-140.1952792308133
 30
0.0
 10
-194.3583656740309
 20
-140.483641580547
 30
0.0
 10
-194.1290457484219
 20
-140.7710789651304
 30
0.0
 10
-193.8978991059695
 20
-141.0588806217035
 30
0.0
 10
-193.6686127073425
 20
-141.742563791325
 30
0.0
 10
-193.6686127073425
 20
-142.535460703272
 30
0.0
 10
-193.8978991059695
 20
-143.218404615032
 30
0.0
 10
-194.1290457484219
 20
-143.5023117754799
 30
0.0
  0
SPLINE
  5
14E
330
5E
100
AcDbEntity
  8
__-1
 62
     2
100
AcDbSpline
210
0.0
220
0.0
230
1.0
 70
    11
 71
     2
 72
    24
 73
    21
 74
     0
 42
0.000000001
 43
0.0000000000001
 40
0.0
 40
0.0
 40
0.0
 40
0.0625428101184794
 40
0.1250856202369589
 40
0.1876284303554291
 40
0.2501712404738939
 40
0.2501712404738939
 40
0.3127819317924082
 40
0.3753926231109214
 40
0.4380033144294402
 40
0.5006140057479599
 40
0.5006140057479599
 40
0.5630134442057598
 40
0.6254128826635683
 40
0.687812321121386
 40
0.7502117595792003
 40
0.7502117595792003
 40
0.8126588196843997
 40
0.8751058797896056
 40
0.9375529398948061
 40
1.0
 40
1.0
 40
1.0
 10
-190.2961831121466
 20
-143.5023117754799
 30
0.0
 10
-190.5263922899434
 20
-143.7869528368481
 30
0.0
 10
-191.2252372581105
 20
-144.0709332088233
 30
0.0
 10
-192.1628572651051
 20
-144.0709332088233
 30
0.0
 10
-192.8622345811634
 20
-143.7869528368481
 30
0.0
 10
-193.091527722068
 20
-143.5023117754799
 30
0.0
 10
-193.3223583050079
 20
-143.218404615032
 30
0.0
 10
-193.5519532202493
 20
-142.535460703272
 30
0.0
 10
-193.5519532202493
 20
-141.742563791325
 30
0.0
 10
-193.3223583050079
 20
-141.0588806217035
 30
0.0
 10
-193.091527722068
 20
-140.7710789651304
 30
0.0
 10
-192.8622345811634
 20
-140.483641580547
 30
0.0
 10
-192.1628572651051
 20
-140.1952792308133
 30
0.0
 10
-191.2252372581105
 20
-140.1952792308133
 30
0.0
 10
-190.5263922899434
 20
-140.483641580547
 30
0.0
 10
-190.2961831121466
 20
-140.7710789651304
 30
0.0
 10
-190.0659792912907
 20
-141.0588806217035
 30
0.0
 10
-189.8353362012819
 20
-141.742563791325
 30
0.0
 10
-189.8353362012819
 20
-142.535460703272
 30
0.0
 10
-190.0659792912907
 20
-143.218404615032
 30
0.0
 10
-190.2961831121466
 20
-143.5023117754799
 30
0.0
  0
POLYLINE
  5
14F
330
5E
100
AcDbEntity
  8
__-1
 62
     2
100
AcDb2dPolyline
 66
     1
 10
0.0
 20
0.0
 30
0.0
 70
   128
  0
VERTEX
  5
150
330
14F
100
AcDbEntity
  8
__-1
 62
     2
100
AcDbVertex
100
AcDb2dVertex
 10
-188.5268569621358
 20
-143.9482378315845
 30
0.0
  0
VERTEX
  5
151
330
14F
100
AcDbEntity
  8
__-1
 62
     2
100
AcDbVertex
100
AcDb2dVertex
 10
-189.4779282477047
 20
-143.9482378315845
 30
0.0
  0
VERTEX
  5
152
330
14F
100
AcDbEntity
  8
__-1
 62
     2
100
AcDbVertex
100
AcDb2dVertex
 10
-189.4779282477047
 20
-139.7459675879807
 30
0.0
  0
VERTEX
  5
153
330
14F
100
AcDbEntity
  8
__-1
 62
     2
100
AcDbVertex
100
AcDb2dVertex
 10
-188.5268569621358
 20
-139.0307016797223
 30
0.0
  0
VERTEX
  5
154
330
14F
100
AcDbEntity
  8
__-1
 62
     2
100
AcDbVertex
100
AcDb2dVertex
 10
-188.5268569621358
 20
-143.9482378315845
 30
0.0
  0
SEQEND
  5
155
330
14F
100
AcDbEntity
  8
__-1
 62
     2
  0
SPLINE
  5
156
330
5E
100
AcDbEntity
  8
__-1
 62
     2
100
AcDbSpline
210
0.0
220
0.0
230
1.0
 70
    11
 71
     2
 72
    35
 73
    32
 74
     0
 42
0.000000001
 43
0.0000000000001
 40
0.0
 40
0.0
 40
0.0
 40
0.0346991411709733
 40
0.0693982823419449
 40
0.1040974235129136
 40
0.138796564683885
 40
0.138796564683885
 40
0.1734070487751533
 40
0.2080175328664182
 40
0.2426280169576912
 40
0.2772385010489573
 40
0.2772385010489573
 40
0.2981348123740419
 40
0.3190311236991206
 40
0.3190311236991206
 40
0.348262488961648
 40
0.348262488961648
 40
0.4081524415292515
 40
0.4081524415292515
 40
0.6764412404224706
 40
0.6764412404224706
 40
0.7524177965795179
 40
0.7524177965795179
 40
0.8641915514837814
 40
0.8641915514837814
 40
0.8841598713805162
 40
0.9041281912772511
 40
0.9041281912772511
 40
0.9280961434579393
 40
0.9520640956386281
 40
0.9760320478193141
 40
1.0
 40
1.0
 40
1.0
 10
-184.8366746608125
 20
-140.7483369648319
 30
0.0
 10
-184.6322323686954
 20
-141.0075807688002
 30
0.0
 10
-184.4284186243095
 20
-141.6746395647738
 30
0.0
 10
-184.4284186243095
 20
-142.5074028318296
 30
0.0
 10
-184.6295967537777
 20
-143.2089228294175
 30
0.0
 10
-184.8309534479422
 20
-143.4880194568249
 30
0.0
 10
-185.0316833800226
 20
-143.7664839651912
 30
0.0
 10
-185.5934443433686
 20
-144.0437985168842
 30
0.0
 10
-186.1798847333938
 20
-144.0437985168842
 30
0.0
 10
-186.54370851651
 20
-143.9541340380062
 30
0.0
 10
-186.6805622854209
 20
-143.8644695591282
 30
0.0
 10
-186.7636912941482
 20
-143.8111090695773
 30
0.0
 10
-186.9421827789483
 20
-143.6240643310981
 30
0.0
 10
-187.0371345562194
 20
-143.4910836270911
 30
0.0
 10
-187.0371345562193
 20
-143.7196607293379
 30
0.0
 10
-187.0371345562194
 20
-143.9482378315845
 30
0.0
 10
-187.5054490426844
 20
-143.9482378315845
 30
0.0
 10
-187.9737635291494
 20
-143.9482378315845
 30
0.0
 10
-187.9737635291494
 20
-141.8503311595737
 30
0.0
 10
-187.9737635291494
 20
-139.7524244875629
 30
0.0
 10
-187.4988242924506
 20
-139.395502220943
 30
0.0
 10
-187.023885055752
 20
-139.0385799543232
 30
0.0
 10
-187.0238850557519
 20
-139.9126041668011
 30
0.0
 10
-187.023885055752
 20
-140.7866283792793
 30
0.0
 10
-186.9333259700105
 20
-140.6594278146384
 30
0.0
 10
-186.7332960115398
 20
-140.4645619422627
 30
0.0
 10
-186.6234358677725
 20
-140.3987787064745
 30
0.0
 10
-186.4943764478562
 20
-140.3153122083626
 30
0.0
 10
-186.1660883838416
 20
-140.2314421540267
 30
0.0
 10
-185.6044992837182
 20
-140.2314421540267
 30
0.0
 10
-185.0399116412292
 20
-140.490035982484
 30
0.0
 10
-184.8366746608125
 20
-140.7483369648319
 30
0.0
  0
SPLINE
  5
157
330
5E
100
AcDbEntity
  8
__-1
 62
     2
100
AcDbSpline
210
0.0
220
0.0
230
1.0
 70
    11
 71
     2
 72
    24
 73
    21
 74
     0
 42
0.000000001
 43
0.0000000000001
 40
0.0
 40
0.0
 40
0.0
 40
0.0508355105156149
 40
0.1016710210312299
 40
0.1525065315468489
 40
0.2033420420624608
 40
0.2033420420624608
 40
0.3001845639770311
 40
0.3970270858916274
 40
0.4938696078062108
 40
0.5907121297208028
 40
0.5907121297208028
 40
0.6419454227746915
 40
0.693178715828587
 40
0.7444120088824868
 40
0.7956453019363868
 40
0.7956453019363868
 40
0.8467339764522849
 40
0.8978226509681873
 40
0.9489113254840985
 40
1.0
 40
1.0
 40
1.0
 10
-185.6297519030725
 20
-142.9639034895179
 30
0.0
 10
-185.5273754057282
 20
-142.8151198094869
 30
0.0
 10
-185.425381036834
 20
-142.425086290391
 30
0.0
 10
-185.425381036834
 20
-141.9896526961073
 30
0.0
 10
-185.476300089868
 20
-141.669548685153
 30
0.0
 10
-185.5271486285639
 20
-141.5432641574274
 30
0.0
 10
-185.6227271679191
 20
-141.3021750265931
 30
0.0
 10
-185.9759797739748
 20
-141.0617322999759
 30
0.0
 10
-186.4938352497883
 20
-141.0617322999759
 30
0.0
 10
-186.8517844014335
 20
-141.297451990256
 30
0.0
 10
-186.948616464957
 20
-141.5329431177191
 30
0.0
 10
-186.9992074147198
 20
-141.6577866283088
 30
0.0
 10
-187.0499697865912
 20
-141.9807226754185
 30
0.0
 10
-187.0499697865912
 20
-142.4134349436614
 30
0.0
 10
-186.9459522796877
 20
-142.8002471555543
 30
0.0
 10
-186.8410633770661
 20
-142.9539967199155
 30
0.0
 10
-186.7368012365286
 20
-143.1075373635766
 30
0.0
 10
-186.4196917636181
 20
-143.2600637597371
 30
0.0
 10
-186.0213228543507
 20
-143.2600637597371
 30
0.0
 10
-185.7327605194418
 20
-143.1112675801771
 30
0.0
 10
-185.6297519030725
 20
-142.9639034895179
 30
0.0
  0
SPLINE
  5
158
330
5E
100
AcDbEntity
  8
__-1
 62
     2
100
AcDbSpline
210
0.0
220
0.0
230
1.0
 70
    11
 71
     2
 72
    24
 73
    21
 74
     0
 42
0.000000001
 43
0.0000000000001
 40
0.0
 40
0.0
 40
0.0
 40
0.0625277752243444
 40
0.1250555504486834
 40
0.1875833256730271
 40
0.2501111008973654
 40
0.2501111008973654
 40
0.3127050040807553
 40
0.375298907264148
 40
0.4378928104475462
 40
0.5004867136309415
 40
0.5004867136309415
 40
0.562871120746381
 40
0.625255527861829
 40
0.6876399349772726
 40
0.7500243420927181
 40
0.7500243420927181
 40
0.8125182565695398
 40
0.8750121710463644
 40
0.9375060855231837
 40
1.0
 40
1.0
 40
1.0
 10
-181.077052120382
 20
-143.5023117754799
 30
0.0
 10
-181.3066559638582
 20
-143.7869528368481
 30
0.0
 10
-182.0057421069134
 20
-144.0709332088233
 30
0.0
 10
-182.9433139014401
 20
-144.0709332088233
 30
0.0
 10
-183.6427161040077
 20
-143.7869528368481
 30
0.0
 10
-183.8720038879715
 20
-143.5023117754799
 30
0.0
 10
-184.1028130431479
 20
-143.218404615032
 30
0.0
 10
-184.3324365287407
 20
-142.535460703272
 30
0.0
 10
-184.3324365287407
 20
-141.742563791325
 30
0.0
 10
-184.1028130431479
 20
-141.0588806217035
 30
0.0
 10
-183.8720038879715
 20
-140.7710789651304
 30
0.0
 10
-183.6427161040077
 20
-140.483641580547
 30
0.0
 10
-182.9433139014401
 20
-140.1952792308133
 30
0.0
 10
-182.0057421069134
 20
-140.1952792308133
 30
0.0
 10
-181.3066559638582
 20
-140.483641580547
 30
0.0
 10
-181.077052120382
 20
-140.7710789651304
 30
0.0
 10
-180.8468697272897
 20
-141.0588806217035
 30
0.0
 10
-180.6166194796128
 20
-141.742563791325
 30
0.0
 10
-180.6166194796128
 20
-142.535460703272
 30
0.0
 10
-180.8468697272897
 20
-143.218404615032
 30
0.0
 10
-181.077052120382
 20
-143.5023117754799
 30
0.0
  0
POLYLINE
  5
159
330
5E
100
AcDbEntity
  8
__-1
 62
     2
100
AcDb2dPolyline
 66
     1
 10
0.0
 20
0.0
 30
0.0
 70
   128
  0
VERTEX
  5
15A
330
159
100
AcDbEntity
  8
__-1
 62
     2
100
AcDbVertex
100
AcDb2dVertex
 10
-180.639354336749
 20
-143.9482378315845
 30
0.0
  0
VERTEX
  5
15B
330
159
100
AcDbEntity
  8
__-1
 62
     2
100
AcDbVertex
100
AcDb2dVertex
 10
-179.3979154271913
 20
-142.1060929518758
 30
0.0
  0
VERTEX
  5
15C
330
159
100
AcDbEntity
  8
__-1
 62
     2
100
AcDbVertex
100
AcDb2dVertex
 10
-180.5872484275879
 20
-140.3176889045307
 30
0.0
  0
VERTEX
  5
15D
330
159
100
AcDbEntity
  8
__-1
 62
     2
100
AcDbVertex
100
AcDb2dVertex
 10
-179.4227430625684
 20
-140.3176889045307
 30
0.0
  0
VERTEX
  5
15E
330
159
100
AcDbEntity
  8
__-1
 62
     2
100
AcDbVertex
100
AcDb2dVertex
 10
-178.8141588645518
 20
-141.3717777613321
 30
0.0
  0
VERTEX
  5
15F
330
159
100
AcDbEntity
  8
__-1
 62
     2
100
AcDbVertex
100
AcDb2dVertex
 10
-178.2213375673857
 20
-140.3176889045307
 30
0.0
  0
VERTEX
  5
160
330
159
100
AcDbEntity
  8
__-1
 62
     2
100
AcDbVertex
100
AcDb2dVertex
 10
-177.0894738886225
 20
-140.3176889045307
 30
0.0
  0
VERTEX
  5
161
330
159
100
AcDbEntity
  8
__-1
 62
     2
100
AcDbVertex
100
AcDb2dVertex
 10
-178.2838352126785
 20
-142.0905721080791
 30
0.0
  0
VERTEX
  5
162
330
159
100
AcDbEntity
  8
__-1
 62
     2
100
AcDbVertex
100
AcDb2dVertex
 10
-177.0431613489835
 20
-143.9482378315845
 30
0.0
  0
VERTEX
  5
163
330
159
100
AcDbEntity
  8
__-1
 62
     2
100
AcDbVertex
100
AcDb2dVertex
 10
-178.2272024225542
 20
-143.9482378315845
 30
0.0
  0
VERTEX
  5
164
330
159
100
AcDbEntity
  8
__-1
 62
     2
100
AcDbVertex
100
AcDb2dVertex
 10
-178.8535002384463
 20
-142.8555075735222
 30
0.0
  0
VERTEX
  5
165
330
159
100
AcDbEntity
  8
__-1
 62
     2
100
AcDbVertex
100
AcDb2dVertex
 10
-179.4851764229917
 20
-143.9482378315845
 30
0.0
  0
VERTEX
  5
166
330
159
100
AcDbEntity
  8
__-1
 62
     2
100
AcDbVertex
100
AcDb2dVertex
 10
-180.639354336749
 20
-143.9482378315845
 30
0.0
  0
SEQEND
  5
167
330
159
100
AcDbEntity
  8
__-1
 62
     2
  0
SPLINE
  5
168
330
5E
100
AcDbEntity
  8
__-1
 62
     2
100
AcDbSpline
210
0.0
220
0.0
230
1.0
 70
    11
 71
     2
 72
    22
 73
    19
 74
     0
 42
0.000000001
 43
0.0000000000001
 40
0.0
 40
0.0
 40
0.0
 40
0.0623037446259159
 40
0.1246074892518296
 40
0.1869112338777433
 40
0.2492149785036544
 40
0.2492149785036544
 40
0.3118073247648454
 40
0.3743996710260337
 40
0.436992017287222
 40
0.4995843635483794
 40
0.5621504693999706
 40
0.6247165752515619
 40
0.6872826811031532
 40
0.7498487869547492
 40
0.8123865902160369
 40
0.8749243934773578
 40
0.9374621967386789
 40
1.0
 40
1.0
 40
1.0
 10
-194.8885742555364
 20
-142.9775029771335
 30
0.0
 10
-194.7778248595813
 20
-142.8298228269538
 30
0.0
 10
-194.6656112331165
 20
-142.4087047647362
 30
0.0
 10
-194.6656112331165
 20
-141.8612361058538
 30
0.0
 10
-194.7778248595813
 20
-141.4410358661985
 30
0.0
 10
-194.8885742555364
 20
-141.2937949851828
 30
0.0
 10
-195.0006039603639
 20
-141.1464523222877
 30
0.0
 10
-195.3206883211153
 20
-140.9984346848234
 30
0.0
 10
-195.7377100985608
 20
-140.9984346848234
 30
0.0
 10
-196.0592033347661
 20
-141.1464523222877
 30
0.0
 10
-196.2844678061618
 20
-141.4410358661985
 30
0.0
 10
-196.3965031178901
 20
-141.8612361058538
 30
0.0
 10
-196.3965031178901
 20
-142.4087047647362
 30
0.0
 10
-196.2844678061618
 20
-142.8298228269538
 30
0.0
 10
-196.0592033347661
 20
-143.1250813454338
 30
0.0
 10
-195.7377100985608
 20
-143.2733204031272
 30
0.0
 10
-195.3206883211153
 20
-143.2733204031272
 30
0.0
 10
-195.0006039603639
 20
-143.1250813454338
 30
0.0
 10
-194.8885742555364
 20
-142.9775029771335
 30
0.0
  0
SPLINE
  5
169
330
5E
100
AcDbEntity
  8
__-1
 62
     2
100
AcDbSpline
210
0.0
220
0.0
230
1.0
 70
    11
 71
     2
 72
    22
 73
    19
 74
     0
 42
0.000000001
 43
0.0000000000001
 40
0.0
 40
0.0
 40
0.0
 40
0.0624550670849404
 40
0.1249101341698837
 40
0.187365201254827
 40
0.2498202683397626
 40
0.2498202683397626
 40
0.3123628687596075
 40
0.3749054691794834
 40
0.4374480695993697
 40
0.4999906700192697
 40
0.5625049078847536
 40
0.6250191457502428
 40
0.6875333836157319
 40
0.7500476214812207
 40
0.8125357161109374
 40
0.8750238107406432
 40
0.9375119053703383
 40
1.0
 40
1.0
 40
1.0
 10
-191.0573829848186
 20
-142.9775029771335
 30
0.0
 10
-190.9456689869748
 20
-142.8298228269538
 30
0.0
 10
-190.8331700095245
 20
-142.4087047647362
 30
0.0
 10
-190.8331700095245
 20
-141.8612361058538
 30
0.0
 10
-190.9456689869748
 20
-141.4410358661985
 30
0.0
 10
-191.0573829848186
 20
-141.2937949851828
 30
0.0
 10
-191.1693912618827
 20
-141.1464523222877
 30
0.0
 10
-191.4889667132495
 20
-140.9984346848234
 30
0.0
 10
-191.9056724311826
 20
-140.9984346848234
 30
0.0
 10
-192.2267924671725
 20
-141.1464523222877
 30
0.0
 10
-192.452057188528
 20
-141.4410358661985
 30
0.0
 10
-192.564897577077
 20
-141.8612361058538
 30
0.0
 10
-192.564897577077
 20
-142.4087047647362
 30
0.0
 10
-192.452057188528
 20
-142.8298228269538
 30
0.0
 10
-192.2267924671725
 20
-143.1250813454338
 30
0.0
 10
-191.9056724311826
 20
-143.2733204031272
 30
0.0
 10
-191.4889667132495
 20
-143.2733204031272
 30
0.0
 10
-191.1693912618827
 20
-143.1250813454338
 30
0.0
 10
-191.0573829848186
 20
-142.9775029771335
 30
0.0
  0
SPLINE
  5
16A
330
5E
100
AcDbEntity
  8
__-1
 62
     2
100
AcDbSpline
210
0.0
220
0.0
230
1.0
 70
    11
 71
     2
 72
    24
 73
    21
 74
     0
 42
0.000000001
 43
0.0000000000001
 40
0.0
 40
0.0
 40
0.0
 40
0.0623714783255181
 40
0.1247429566510213
 40
0.1871144349765245
 40
0.2494859133020379
 40
0.2494859133020379
 40
0.3119919056998797
 40
0.3744978980977078
 40
0.4370038904955255
 40
0.4995098828933457
 40
0.4995098828933457
 40
0.5621805040113327
 40
0.6248511251293171
 40
0.6875217462473013
 40
0.7501923673652932
 40
0.7501923673652932
 40
0.8126442755239619
 40
0.8750961836826306
 40
0.9375480918413097
 40
1.0
 40
1.0
 40
1.0
 10
-181.8370663234704
 20
-142.9775029771335
 30
0.0
 10
-181.725952655535
 20
-142.8298228269538
 30
0.0
 10
-181.6152532576949
 20
-142.4087047647362
 30
0.0
 10
-181.6152532576949
 20
-141.8612361058538
 30
0.0
 10
-181.725952655535
 20
-141.4410358661985
 30
0.0
 10
-181.8370663234704
 20
-141.2937949851828
 30
0.0
 10
-181.9487049716131
 20
-141.1464523222877
 30
0.0
 10
-182.2692482436339
 20
-140.9984346848234
 30
0.0
 10
-182.6859271768625
 20
-140.9984346848234
 30
0.0
 10
-183.0081828843212
 20
-141.1464523222877
 30
0.0
 10
-183.1198751018728
 20
-141.2937949851828
 30
0.0
 10
-183.2325047840801
 20
-141.4410358661985
 30
0.0
 10
-183.3457951556638
 20
-141.8612361058538
 30
0.0
 10
-183.3457951556638
 20
-142.4087047647362
 30
0.0
 10
-183.2325047840801
 20
-142.8298228269538
 30
0.0
 10
-183.1198751018728
 20
-142.9775029771335
 30
0.0
 10
-183.0081828843212
 20
-143.1250813454338
 30
0.0
 10
-182.6859271768625
 20
-143.2733204031272
 30
0.0
 10
-182.2692482436339
 20
-143.2733204031272
 30
0.0
 10
-181.9487049716131
 20
-143.1250813454338
 30
0.0
 10
-181.8370663234704
 20
-142.9775029771335
 30
0.0
  0
ENDBLK
  5
60
330
5E
100
AcDbEntity
  8
0
100
AcDbBlockEnd
  0
BLOCK
  5
63
330
62
100
AcDbEntity
  8
0
100
AcDbBlockBegin
  2
____-1
 70
     0
 10
0.0
 20
0.0
 30
0.0
  3
____-1
  1

  0
INSERT
  5
16B
330
62
100
AcDbEntity
  8
__-1
 62
    17
100
AcDbBlockReference
  2
____
 10
0.0
 20
0.0
 30
0.0
  0
LINE
  5
16C
330
62
100
AcDbEntity
  8
__-1
  6
CONTINUOUS
 62
    17
100
AcDbLine
 10
-205.7823333333333
 20
-138.272
 30
0.0
 11
205.6976666666667
 21
-138.272
 31
0.0
  0
MTEXT
  5
16D
330
62
100
AcDbEntity
  8
__-1
 62
    17
100
AcDbMText
 10
-8.060558063726035
 20
-141.9761157218981
 30
0.0
 40
1.593012152777778
 41
0.0
 71
     7
 72
     1
  1
{\fYuGothic Medium|b0|i0|c128|p0;NAME:}
1001
ACAD
1000
MTEXTBEGIN
1070
    44
1040
0.8004335681827657
1000
MTEXTEND
  0
MTEXT
  5
16E
330
62
100
AcDbEntity
  8
__-1
 62
    17
100
AcDbMText
 10
110.9440226952643
 20
-141.8895511266454
 30
0.0
 40
1.593012152777778
 41
0.0
 71
     9
 72
     1
  1
{\fYuGothic Medium|b0|i0|c128|p0;ID:}
1001
ACAD
1000
MTEXTBEGIN
1070
    44
1040
0.8004335681827657
1000
MTEXTEND
  0
MTEXT
  5
16F
330
62
100
AcDbEntity
  8
__-1
 62
    17
100
AcDbMText
 10
151.3148991110963
 20
-141.882109999013
 30
0.0
 40
1.593012152777778
 41
0.0
 71
     9
 72
     1
  1
{\fYuGothic Medium|b0|i0|c128|p0;DATE:}
1001
ACAD
1000
MTEXTBEGIN
1070
    44
1040
0.8004335681827657
1000
MTEXTEND
  0
MTEXT
  5
170
330
62
100
AcDbEntity
  8
__-1
 62
    17
100
AcDbMText
 10
189.7302940308904
 20
-141.8895511266454
 30
0.0
 40
1.593012152777778
 41
0.0
 71
     9
 72
     1
  1
{\fYuGothic Medium|b0|i0|c128|p0;SCALE:}
1001
ACAD
1000
MTEXTBEGIN
1070
    44
1040
0.8004335681827657
1000
MTEXTEND
  0
POINT
  5
171
330
62
100
AcDbEntity
  8
__-1
  6
CONTINUOUS
 62
     2
100
AcDbPoint
 10
-205.7823333333333
 20
-144.272
 30
0.0
  0
ENDBLK
  5
64
330
62
100
AcDbEntity
  8
0
100
AcDbBlockEnd
  0
BLOCK
  5
68
330
67
100
AcDbEntity
  8
0
100
AcDbBlockBegin
  2
____-2
 70
     0
 10
0.0
 20
0.0
 30
0.0
  3
____-2
  1

  0
INSERT
  5
172
330
67
100
AcDbEntity
  8
__-1
 62
    17
100
AcDbBlockReference
  2
____-1
 10
0.0
 20
0.0
 30
0.0
  0
MTEXT
  5
173
330
67
100
AcDbEntity
  8
__-1
 62
    17
100
AcDbMText
 10
0.042333333333346
 20
-142.4083844037374
 30
0.0
 40
2.124016203703702
 41
0.0
 71
     7
 72
     1
  1
{\fYuGothic Medium|b0|i0|c128|p0;ユニキッチンシステム}
1001
ACAD
1000
MTEXTBEGIN
1070
    44
1040
0.8004335681827665
1000
MTEXTEND
  0
POINT
  5
174
330
67
100
AcDbEntity
  8
_-0_18
  6
CONTINUOUS
 62
     2
100
AcDbPoint
 10
29.17988835059273
 20
-142.4083844037374
 30
0.0
  0
POINT
  5
175
330
67
100
AcDbEntity
  8
_-0_18
  6
CONTINUOUS
 62
     2
100
AcDbPoint
 10
111.9440226952643
 20
-142.1895511266454
 30
0.0
  0
POINT
  5
176
330
67
100
AcDbEntity
  8
_-0_18
  6
CONTINUOUS
 62
     2
100
AcDbPoint
 10
152.3148991110963
 20
-142.1895511266454
 30
0.0
  0
POINT
  5
177
330
67
100
AcDbEntity
  8
_-0_18
  6
CONTINUOUS
 62
     2
100
AcDbPoint
 10
190.7302940308904
 20
-141.8933022615936
 30
0.0
  0
MTEXT
  5
178
330
67
100
AcDbEntity
  8
__-1
 62
    17
100
AcDbMText
 10
152.3148991110963
 20
-142.1895511266454
 30
0.0
 40
2.124016203703702
 41
0.0
 71
     7
 72
     1
  1
{\fYuGothic Medium|b0|i0|c128|p0;2024.11.30}
1001
ACAD
1000
MTEXTBEGIN
1070
    44
1040
0.8004335681827665
1000
MTEXTEND
  0
MTEXT
  5
179
330
67
100
AcDbEntity
  8
__-1
 62
    17
100
AcDbMText
 10
190.7302940308904
 20
-142.1895511266454
 30
0.0
 40
2.124016203703702
 41
0.0
 71
     7
 72
     1
  1
{\fYuGothic Medium|b0|i0|c128|p0;1/10(A3)}
1001
ACAD
1000
MTEXTBEGIN
1070
    44
1040
0.8004335681827665
1000
MTEXTEND
  0
LINE
  5
17A
330
67
100
AcDbEntity
  8
__-1
 62
     1
100
AcDbLine
 10
113.8246666666665
 20
130.272
 30
0.0
 11
113.8246666666665
 21
107.7719999999999
 31
0.0
  0
LINE
  5
17B
330
67
100
AcDbEntity
  8
__-1
 62
     1
100
AcDbLine
 10
143.8246666666665
 20
130.272
 30
0.0
 11
143.8246666666665
 21
107.7719999999999
 31
0.0
  0
MTEXT
  5
17C
330
67
100
AcDbEntity
  8
__-1
 62
    17
100
AcDbMText
 10
108.8246666666665
 20
126.4869999999999
 30
0.0
 40
2.179137731481482
 41
10.0
 71
     5
 72
     1
  1
{\fYuGothic Bold|b0|i0|c128|p0;No.}
1001
ACAD
1000
MTEXTBEGIN
1070
    44
1040
1.170279770007517
1000
MTEXTEND
  0
MTEXT
  5
17D
330
67
100
AcDbEntity
  8
__-1
 62
    17
100
AcDbMText
 10
128.8246666666666
 20
126.4869999999999
 30
0.0
 40
2.179137731481482
 41
24.30000000000009
 71
     5
 72
     1
  1
{\fYuGothic Bold|b0|i0|c128|p0;名 称}
1001
ACAD
1000
MTEXTBEGIN
1070
    44
1040
1.170279770007517
1000
MTEXTEND
  0
MTEXT
  5
17E
330
67
100
AcDbEntity
  8
__-1
 62
    17
100
AcDbMText
 10
169.8246666666665
 20
126.4869999999999
 30
0.0
 40
2.179137731481482
 41
51.99999999999999
 71
     5
 72
     1
  1
{\fYuGothic Bold|b1|i0|c128|p0;仕 様}
1001
ACAD
1000
MTEXTBEGIN
1070
    44
1040
1.170279770007517
1000
MTEXTEND
  0
MTEXT
  5
17F
330
67
100
AcDbEntity
  8
_-0_18
 62
     1
100
AcDbMText
 10
108.8246666666665
 20
119.0219999999999
 30
0.0
 40
2.124016203703704
 41
10.0
 71
     5
 72
     1
  1
{\fYuGothic Medium|b0|i0|c128|p0;1}
1001
ACAD
1000
MTEXTBEGIN
1070
    44
1040
0.8004335681827656
1000
MTEXTEND
  0
MTEXT
  5
180
330
67
100
AcDbEntity
  8
_-0_18
 62
     1
100
AcDbMText
 10
108.8482123677179
 20
111.5219999999999
 30
0.0
 40
2.124016203703704
 41
10.0
 71
     5
 72
     1
  1
{\fYuGothic Medium|b0|i0|c128|p0;2}
1001
ACAD
1000
MTEXTBEGIN
1070
    44
1040
0.8004335681827656
1000
MTEXTEND
  0
MTEXT
  5
181
330
67
100
AcDbEntity
  8
_-0_18
 62
     1
100
AcDbMText
 10
128.8246666666666
 20
111.5219999999999
 30
0.0
 40
2.124016203703704
 41
24.27645429894871
 71
     5
 72
     1
  1
{\fYuGothic Medium|b0|i0|c128|p0;バー}
1001
ACAD
1000
MTEXTBEGIN
1070
    44
1040
0.8004335681827656
1000
MTEXTEND
  0
MTEXT
  5
182
330
67
100
AcDbEntity
  8
_-0_18
 62
     1
100
AcDbMText
 10
128.8246666666666
 20
119.0219999999999
 30
0.0
 40
2.124016203703704
 41
24.3
 71
     5
 72
     1
  1
{\fYuGothic Medium|b0|i0|c128|p0;面材}
1001
ACAD
1000
MTEXTBEGIN
1070
    44
1040
0.8004335681827656
1000
MTEXTEND
  0
MTEXT
  5
183
330
67
100
AcDbEntity
  8
__-1
 62
    17
100
AcDbMText
 10
103.8246666666665
 20
132.9178333333334
 30
0.0
 40
2.65502025462963
 41
0.0
 71
     4
 72
     1
  1
{\fYuGothic Medium|b0|i0|c128|p0;■仕様表}
1001
ACAD
1000
MTEXTBEGIN
1070
    44
1040
1.200650352274148
1000
MTEXTEND
  0
POLYLINE
  5
184
330
67
100
AcDbEntity
  8
__-1
 62
     1
100
AcDb2dPolyline
 66
     1
 10
0.0
 20
0.0
 30
0.0
 70
   129
  0
VERTEX
  5
185
330
184
100
AcDbEntity
  8
__-1
 62
     1
100
AcDbVertex
100
AcDb2dVertex
 10
103.8246666666665
 20
130.272
 30
0.0
  0
VERTEX
  5
186
330
184
100
AcDbEntity
  8
__-1
 62
     1
100
AcDbVertex
100
AcDb2dVertex
 10
195.8246666666665
 20
130.272
 30
0.0
  0
VERTEX
  5
187
330
184
100
AcDbEntity
  8
__-1
 62
     1
100
AcDbVertex
100
AcDb2dVertex
 10
195.8246666666665
 20
122.7719999999999
 30
0.0
  0
VERTEX
  5
188
330
184
100
AcDbEntity
  8
__-1
 62
     1
100
AcDbVertex
100
AcDb2dVertex
 10
103.8246666666665
 20
122.7719999999999
 30
0.0
  0
SEQEND
  5
189
330
184
100
AcDbEntity
  8
__-1
 62
     1
  0
POLYLINE
  5
18A
330
67
100
AcDbEntity
  8
__-1
 62
     1
100
AcDb2dPolyline
 66
     1
 10
0.0
 20
0.0
 30
0.0
 70
   129
  0
VERTEX
  5
18B
330
18A
100
AcDbEntity
  8
__-1
 62
     1
100
AcDbVertex
100
AcDb2dVertex
 10
103.8246666666665
 20
122.7719999999999
 30
0.0
  0
VERTEX
  5
18C
330
18A
100
AcDbEntity
  8
__-1
 62
     1
100
AcDbVertex
100
AcDb2dVertex
 10
195.8246666666665
 20
122.7719999999999
 30
0.0
  0
VERTEX
  5
18D
330
18A
100
AcDbEntity
  8
__-1
 62
     1
100
AcDbVertex
100
AcDb2dVertex
 10
195.8246666666665
 20
115.2719999999999
 30
0.0
  0
VERTEX
  5
18E
330
18A
100
AcDbEntity
  8
__-1
 62
     1
100
AcDbVertex
100
AcDb2dVertex
 10
103.8246666666665
 20
115.2719999999999
 30
0.0
  0
SEQEND
  5
18F
330
18A
100
AcDbEntity
  8
__-1
 62
     1
  0
POLYLINE
  5
190
330
67
100
AcDbEntity
  8
__-1
 62
     1
100
AcDb2dPolyline
 66
     1
 10
0.0
 20
0.0
 30
0.0
 70
   129
  0
VERTEX
  5
191
330
190
100
AcDbEntity
  8
__-1
 62
     1
100
AcDbVertex
100
AcDb2dVertex
 10
103.8246666666665
 20
115.2719999999999
 30
0.0
  0
VERTEX
  5
192
330
190
100
AcDbEntity
  8
__-1
 62
     1
100
AcDbVertex
100
AcDb2dVertex
 10
195.8246666666665
 20
115.2719999999999
 30
0.0
  0
VERTEX
  5
193
330
190
100
AcDbEntity
  8
__-1
 62
     1
100
AcDbVertex
100
AcDb2dVertex
 10
195.8246666666665
 20
107.7719999999999
 30
0.0
  0
VERTEX
  5
194
330
190
100
AcDbEntity
  8
__-1
 62
     1
100
AcDbVertex
100
AcDb2dVertex
 10
103.8246666666665
 20
107.7719999999999
 30
0.0
  0
SEQEND
  5
195
330
190
100
AcDbEntity
  8
__-1
 62
     1
  0
MTEXT
  5
196
330
67
100
AcDbEntity
  8
_-0_18
 62
     1
100
AcDbMText
 10
169.8246666666665
 20
119.0219999999999
 30
0.0
 40
2.124016203703704
 41
51.84999999999998
 71
     5
 72
     1
  1
{\fYuGothic Medium|b0|i0|c128|p0;メラミン化粧板}
1001
ACAD
1000
MTEXTBEGIN
1070
    44
1040
0.8004335681827656
1000
MTEXTEND
  0
MTEXT
  5
197
330
67
100
AcDbEntity
  8
__-1
 62
     1
100
AcDbMText
 10
104.0176666666667
 20
105.2842919560184
 30
0.0
 40
1.858514178240741
 41
91.80699999999985
 71
     1
 72
     1
  1
{\fYuGothic Medium|b0|i0|c128|p0;ご注意\P※製品の寸法は交差があります。\P※バー金物の耐荷重は均等荷重は8kg程度です。}
1001
ACAD
1000
MTEXTBEGIN
1070
    44
1040
1.372171831170455
1000
MTEXTEND
  0
LINE
  5
198
330
67
100
AcDbEntity
  8
__-1
 62
    17
100
AcDbLine
 10
113.8246666666665
 20
122.7719999999999
 30
0.0
 11
143.8246666666665
 21
122.7719999999999
 31
0.0
  0
MTEXT
  5
199
330
67
100
AcDbEntity
  8
_-0_18
 62
     1
100
AcDbMText
 10
169.8246666666665
 20
111.5219999999999
 30
0.0
 40
2.124016203703704
 41
51.84999999999998
 71
     5
 72
     1
  1
{\fYuGothic Medium|b0|i0|c128|p0;SUS Φ8 素地}
1001
ACAD
1000
MTEXTBEGIN
1070
    44
1040
0.8004335681827656
1000
MTEXTEND
  0
ENDBLK
  5
69
330
67
100
AcDbEntity
  8
0
100
AcDbBlockEnd
  0
BLOCK
  5
6B
330
6A
100
AcDbEntity
  8
0
100
AcDbBlockBegin
  2
*D4
 70
     1
 10
0.0
 20
0.0
 30
0.0
  3
*D4
  1

  0
LINE
  5
19A
330
6A
100
AcDbEntity
  8
__
 62
     0
100
AcDbLine
 10
-1280.0
 20
-22530.0
 30
0.0
 11
-1280.0
 21
-22390.0
 31
0.0
  0
LINE
  5
19B
330
6A
100
AcDbEntity
  8
__
 62
     0
100
AcDbLine
 10
-1300.0
 20
-22530.0
 30
0.0
 11
-1300.0
 21
-22390.0
 31
0.0
  0
LINE
  5
19C
330
6A
100
AcDbEntity
  8
__
 62
     0
100
AcDbLine
 10
-1280.0
 20
-22390.0
 30
0.0
 11
-1300.0
 21
-22390.0
 31
0.0
  0
LINE
  5
19D
330
6A
100
AcDbEntity
  8
__
 62
     0
100
AcDbLine
 10
-1274.000366210938
 20
-22390.0
 30
0.0
 11
-1268.000732421875
 21
-22390.0
 31
0.0
  0
LINE
  5
220
330
6A
100
AcDbEntity
  8
__
 62
     0
100
AcDbLine
 10
-1305.999633789063
 20
-22390.0
 30
0.0
 11
-1311.999267578125
 21
-22390.0
 31
0.0
  0
INSERT
  5
2A3
330
6A
100
AcDbEntity
  8
__
 62
     0
100
AcDbBlockReference
  2
_DOT
 10
-1280.0
 20
-22390.0
 30
0.0
 41
5.9996337890625
 42
5.9996337890625
 43
5.9996337890625
 50
180.0
  0
INSERT
  5
2A4
330
6A
100
AcDbEntity
  8
__
 62
     0
100
AcDbBlockReference
  2
_DOT
 10
-1300.0
 20
-22390.0
 30
0.0
 41
5.9996337890625
 42
5.9996337890625
 43
5.9996337890625
  0
MTEXT
  5
2A5
330
6A
100
AcDbEntity
  8
__
 62
     0
100
AcDbMText
 10
-1290.0
 20
-22378.37991898148
 30
0.0
 40
21.24016203703704
 41
0.0
 71
     5
 72
     1
  1
\A1;20
  7
YUGOTHIC_MEDIUM
  0
POINT
  5
2A6
330
6A
100
AcDbEntity
  8
DEFPOINTS
 62
     0
100
AcDbPoint
 10
-1280.0
 20
-22550.0
 30
0.0
  0
POINT
  5
3060
330
6A
100
AcDbEntity
  8
DEFPOINTS
 62
     0
100
AcDbPoint
 10
-1300.0
 20
-22550.0
 30
0.0
  0
POINT
  5
3061
330
6A
100
AcDbEntity
  8
DEFPOINTS
 62
     0
100
AcDbPoint
 10
-1300.0
 20
-22390.0
 30
0.0
  0
ENDBLK
  5
6C
330
6A
100
AcDbEntity
  8
0
100
AcDbBlockEnd
  0
BLOCK
  5
6E
330
6D
100
AcDbEntity
  8
0
100
AcDbBlockBegin
  2
*D5
 70
     1
 10
0.0
 20
0.0
 30
0.0
  3
*D5
  1

  0
LINE
  5
2A7
330
6D
100
AcDbEntity
  8
__
 62
     0
100
AcDbLine
 10
280.0000000000002
 20
-22530.0
 30
0.0
 11
280.0000000000002
 21
-22390.0
 31
0.0
  0
LINE
  5
2A8
330
6D
100
AcDbEntity
  8
__
 62
     0
100
AcDbLine
 10
-1280.0
 20
-22530.0
 30
0.0
 11
-1280.0
 21
-22390.0
 31
0.0
  0
LINE
  5
2A9
330
6D
100
AcDbEntity
  8
__
 62
     0
100
AcDbLine
 10
274.0003662109377
 20
-22390.0
 30
0.0
 11
-1274.000366210938
 21
-22390.0
 31
0.0
  0
INSERT
  5
2AA
330
6D
100
AcDbEntity
  8
__
 62
     0
100
AcDbBlockReference
  2
_DOT
 10
280.0000000000002
 20
-22390.0
 30
0.0
 41
5.9996337890625
 42
5.9996337890625
 43
5.9996337890625
  0
INSERT
  5
32D
330
6D
100
AcDbEntity
  8
__
 62
     0
100
AcDbBlockReference
  2
_DOT
 10
-1280.0
 20
-22390.0
 30
0.0
 41
5.9996337890625
 42
5.9996337890625
 43
5.9996337890625
 50
180.0
  0
MTEXT
  5
3B0
330
6D
100
AcDbEntity
  8
__
 62
     0
100
AcDbMText
 10
-499.9999999999999
 20
-22378.37991898148
 30
0.0
 40
21.24016203703704
 41
0.0
 71
     5
 72
     1
  1
\A1;1560
  7
YUGOTHIC_MEDIUM
  0
POINT
  5
3B1
330
6D
100
AcDbEntity
  8
DEFPOINTS
 62
     0
100
AcDbPoint
 10
280.0000000000002
 20
-22550.0
 30
0.0
  0
POINT
  5
3B2
330
6D
100
AcDbEntity
  8
DEFPOINTS
 62
     0
100
AcDbPoint
 10
-1280.0
 20
-22550.0
 30
0.0
  0
POINT
  5
3B3
330
6D
100
AcDbEntity
  8
DEFPOINTS
 62
     0
100
AcDbPoint
 10
-1280.0
 20
-22390.0
 30
0.0
  0
ENDBLK
  5
6F
330
6D
100
AcDbEntity
  8
0
100
AcDbBlockEnd
  0
BLOCK
  5
71
330
70
100
AcDbEntity
  8
0
100
AcDbBlockBegin
  2
*D6
 70
     1
 10
0.0
 20
0.0
 30
0.0
  3
*D6
  1

  0
LINE
  5
3B4
330
70
100
AcDbEntity
  8
__
 62
     0
100
AcDbLine
 10
300.0000000000002
 20
-22530.0
 30
0.0
 11
300.0000000000002
 21
-22390.0
 31
0.0
  0
LINE
  5
3B5
330
70
100
AcDbEntity
  8
__
 62
     0
100
AcDbLine
 10
280.0000000000002
 20
-22530.0
 30
0.0
 11
280.0000000000002
 21
-22390.0
 31
0.0
  0
LINE
  5
3B6
330
70
100
AcDbEntity
  8
__
 62
     0
100
AcDbLine
 10
300.0000000000002
 20
-22390.0
 30
0.0
 11
280.0000000000002
 21
-22390.0
 31
0.0
  0
LINE
  5
3B7
330
70
100
AcDbEntity
  8
__
 62
     0
100
AcDbLine
 10
305.9996337890627
 20
-22390.0
 30
0.0
 11
311.9992675781252
 21
-22390.0
 31
0.0
  0
LINE
  5
43A
330
70
100
AcDbEntity
  8
__
 62
     0
100
AcDbLine
 10
274.0003662109377
 20
-22390.0
 30
0.0
 11
268.0007324218752
 21
-22390.0
 31
0.0
  0
INSERT
  5
4BD
330
70
100
AcDbEntity
  8
__
 62
     0
100
AcDbBlockReference
  2
_DOT
 10
300.0000000000002
 20
-22390.0
 30
0.0
 41
5.9996337890625
 42
5.9996337890625
 43
5.9996337890625
 50
180.0
  0
INSERT
  5
4BE
330
70
100
AcDbEntity
  8
__
 62
     0
100
AcDbBlockReference
  2
_DOT
 10
280.0000000000002
 20
-22390.0
 30
0.0
 41
5.9996337890625
 42
5.9996337890625
 43
5.9996337890625
  0
MTEXT
  5
4BF
330
70
100
AcDbEntity
  8
__
 62
     0
100
AcDbMText
 10
290.0000000000002
 20
-22378.37991898148
 30
0.0
 40
21.24016203703704
 41
0.0
 71
     5
 72
     1
  1
\A1;20
  7
YUGOTHIC_MEDIUM
  0
POINT
  5
4C0
330
70
100
AcDbEntity
  8
DEFPOINTS
 62
     0
100
AcDbPoint
 10
300.0000000000002
 20
-22550.0
 30
0.0
  0
POINT
  5
3064
330
70
100
AcDbEntity
  8
DEFPOINTS
 62
     0
100
AcDbPoint
 10
280.0000000000002
 20
-22550.0
 30
0.0
  0
POINT
  5
3065
330
70
100
AcDbEntity
  8
DEFPOINTS
 62
     0
100
AcDbPoint
 10
280.0000000000002
 20
-22390.0
 30
0.0
  0
ENDBLK
  5
72
330
70
100
AcDbEntity
  8
0
100
AcDbBlockEnd
  0
BLOCK
  5
74
330
73
100
AcDbEntity
  8
0
100
AcDbBlockBegin
  2
*D7
 70
     1
 10
0.0
 20
0.0
 30
0.0
  3
*D7
  1

  0
LINE
  5
4C1
330
73
100
AcDbEntity
  8
__
 62
     0
100
AcDbLine
 10
-772.9999999999998
 20
-22530.0
 30
0.0
 11
-772.9999999999998
 21
-22450.0
 31
0.0
  0
LINE
  5
4C2
330
73
100
AcDbEntity
  8
__
 62
     0
100
AcDbLine
 10
-1280.0
 20
-22530.0
 30
0.0
 11
-1280.0
 21
-22450.0
 31
0.0
  0
LINE
  5
4C3
330
73
100
AcDbEntity
  8
__
 62
     0
100
AcDbLine
 10
-778.9996337890623
 20
-22450.0
 30
0.0
 11
-1274.000366210938
 21
-22450.0
 31
0.0
  0
INSERT
  5
4C4
330
73
100
AcDbEntity
  8
__
 62
     0
100
AcDbBlockReference
  2
_DOT
 10
-772.9999999999998
 20
-22450.0
 30
0.0
 41
5.9996337890625
 42
5.9996337890625
 43
5.9996337890625
  0
INSERT
  5
547
330
73
100
AcDbEntity
  8
__
 62
     0
100
AcDbBlockReference
  2
_DOT
 10
-1280.0
 20
-22450.0
 30
0.0
 41
5.9996337890625
 42
5.9996337890625
 43
5.9996337890625
 50
180.0
  0
MTEXT
  5
5CA
330
73
100
AcDbEntity
  8
__
 62
     0
100
AcDbMText
 10
-1026.5
 20
-22438.37991898148
 30
0.0
 40
21.24016203703704
 41
0.0
 71
     5
 72
     1
  1
\A1;507
  7
YUGOTHIC_MEDIUM
  0
POINT
  5
5CB
330
73
100
AcDbEntity
  8
DEFPOINTS
 62
     0
100
AcDbPoint
 10
-772.9999999999998
 20
-22550.0
 30
0.0
  0
POINT
  5
5CC
330
73
100
AcDbEntity
  8
DEFPOINTS
 62
     0
100
AcDbPoint
 10
-1280.0
 20
-22550.0
 30
0.0
  0
POINT
  5
5CD
330
73
100
AcDbEntity
  8
DEFPOINTS
 62
     0
100
AcDbPoint
 10
-1280.0
 20
-22450.0
 30
0.0
  0
ENDBLK
  5
75
330
73
100
AcDbEntity
  8
0
100
AcDbBlockEnd
  0
BLOCK
  5
77
330
76
100
AcDbEntity
  8
0
100
AcDbBlockBegin
  2
*D8
 70
     1
 10
0.0
 20
0.0
 30
0.0
  3
*D8
  1

  0
LINE
  5
5CE
330
76
100
AcDbEntity
  8
__
 62
     0
100
AcDbLine
 10
-752.9999999999998
 20
-22530.0
 30
0.0
 11
-752.9999999999998
 21
-22450.0
 31
0.0
  0
LINE
  5
5CF
330
76
100
AcDbEntity
  8
__
 62
     0
100
AcDbLine
 10
-772.9999999999998
 20
-22530.0
 30
0.0
 11
-772.9999999999998
 21
-22450.0
 31
0.0
  0
LINE
  5
5D0
330
76
100
AcDbEntity
  8
__
 62
     0
100
AcDbLine
 10
-752.9999999999998
 20
-22450.0
 30
0.0
 11
-772.9999999999998
 21
-22450.0
 31
0.0
  0
LINE
  5
5D1
330
76
100
AcDbEntity
  8
__
 62
     0
100
AcDbLine
 10
-747.0003662109373
 20
-22450.0
 30
0.0
 11
-741.0007324218748
 21
-22450.0
 31
0.0
  0
LINE
  5
654
330
76
100
AcDbEntity
  8
__
 62
     0
100
AcDbLine
 10
-778.9996337890623
 20
-22450.0
 30
0.0
 11
-784.9992675781248
 21
-22450.0
 31
0.0
  0
INSERT
  5
6D7
330
76
100
AcDbEntity
  8
__
 62
     0
100
AcDbBlockReference
  2
_DOT
 10
-752.9999999999998
 20
-22450.0
 30
0.0
 41
5.9996337890625
 42
5.9996337890625
 43
5.9996337890625
 50
180.0
  0
INSERT
  5
6D8
330
76
100
AcDbEntity
  8
__
 62
     0
100
AcDbBlockReference
  2
_DOT
 10
-772.9999999999998
 20
-22450.0
 30
0.0
 41
5.9996337890625
 42
5.9996337890625
 43
5.9996337890625
  0
MTEXT
  5
6D9
330
76
100
AcDbEntity
  8
__
 62
     0
100
AcDbMText
 10
-762.9999999999998
 20
-22438.37991898148
 30
0.0
 40
21.24016203703704
 41
0.0
 71
     5
 72
     1
  1
\A1;20
  7
YUGOTHIC_MEDIUM
  0
POINT
  5
6DA
330
76
100
AcDbEntity
  8
DEFPOINTS
 62
     0
100
AcDbPoint
 10
-752.9999999999998
 20
-22550.0
 30
0.0
  0
POINT
  5
3068
330
76
100
AcDbEntity
  8
DEFPOINTS
 62
     0
100
AcDbPoint
 10
-772.9999999999998
 20
-22550.0
 30
0.0
  0
POINT
  5
3069
330
76
100
AcDbEntity
  8
DEFPOINTS
 62
     0
100
AcDbPoint
 10
-772.9999999999998
 20
-22450.0
 30
0.0
  0
ENDBLK
  5
78
330
76
100
AcDbEntity
  8
0
100
AcDbBlockEnd
  0
BLOCK
  5
7A
330
79
100
AcDbEntity
  8
0
100
AcDbBlockBegin
  2
*D9
 70
     1
 10
0.0
 20
0.0
 30
0.0
  3
*D9
  1

  0
LINE
  5
6DB
330
79
100
AcDbEntity
  8
__
 62
     0
100
AcDbLine
 10
-246.9999999999998
 20
-22530.0
 30
0.0
 11
-246.9999999999998
 21
-22450.0
 31
0.0
  0
LINE
  5
6DC
330
79
100
AcDbEntity
  8
__
 62
     0
100
AcDbLine
 10
-752.9999999999998
 20
-22530.0
 30
0.0
 11
-752.9999999999998
 21
-22450.0
 31
0.0
  0
LINE
  5
6DD
330
79
100
AcDbEntity
  8
__
 62
     0
100
AcDbLine
 10
-252.9996337890623
 20
-22450.0
 30
0.0
 11
-747.0003662109373
 21
-22450.0
 31
0.0
  0
INSERT
  5
6DE
330
79
100
AcDbEntity
  8
__
 62
     0
100
AcDbBlockReference
  2
_DOT
 10
-246.9999999999998
 20
-22450.0
 30
0.0
 41
5.9996337890625
 42
5.9996337890625
 43
5.9996337890625
  0
INSERT
  5
761
330
79
100
AcDbEntity
  8
__
 62
     0
100
AcDbBlockReference
  2
_DOT
 10
-752.9999999999998
 20
-22450.0
 30
0.0
 41
5.9996337890625
 42
5.9996337890625
 43
5.9996337890625
 50
180.0
  0
MTEXT
  5
7E4
330
79
100
AcDbEntity
  8
__
 62
     0
100
AcDbMText
 10
-499.9999999999998
 20
-22438.37991898148
 30
0.0
 40
21.24016203703704
 41
0.0
 71
     5
 72
     1
  1
\A1;506
  7
YUGOTHIC_MEDIUM
  0
POINT
  5
7E5
330
79
100
AcDbEntity
  8
DEFPOINTS
 62
     0
100
AcDbPoint
 10
-246.9999999999998
 20
-22550.0
 30
0.0
  0
POINT
  5
7E6
330
79
100
AcDbEntity
  8
DEFPOINTS
 62
     0
100
AcDbPoint
 10
-752.9999999999998
 20
-22550.0
 30
0.0
  0
POINT
  5
7E7
330
79
100
AcDbEntity
  8
DEFPOINTS
 62
     0
100
AcDbPoint
 10
-752.9999999999998
 20
-22450.0
 30
0.0
  0
ENDBLK
  5
7B
330
79
100
AcDbEntity
  8
0
100
AcDbBlockEnd
  0
BLOCK
  5
7D
330
7C
100
AcDbEntity
  8
0
100
AcDbBlockBegin
  2
*D10
 70
     1
 10
0.0
 20
0.0
 30
0.0
  3
*D10
  1

  0
LINE
  5
7E8
330
7C
100
AcDbEntity
  8
__
 62
     0
100
AcDbLine
 10
-226.9999999999998
 20
-22530.0
 30
0.0
 11
-226.9999999999998
 21
-22450.0
 31
0.0
  0
LINE
  5
7E9
330
7C
100
AcDbEntity
  8
__
 62
     0
100
AcDbLine
 10
-246.9999999999998
 20
-22530.0
 30
0.0
 11
-246.9999999999998
 21
-22450.0
 31
0.0
  0
LINE
  5
7EA
330
7C
100
AcDbEntity
  8
__
 62
     0
100
AcDbLine
 10
-226.9999999999998
 20
-22450.0
 30
0.0
 11
-246.9999999999998
 21
-22450.0
 31
0.0
  0
LINE
  5
7EB
330
7C
100
AcDbEntity
  8
__
 62
     0
100
AcDbLine
 10
-221.0003662109373
 20
-22450.0
 30
0.0
 11
-215.0007324218748
 21
-22450.0
 31
0.0
  0
LINE
  5
86E
330
7C
100
AcDbEntity
  8
__
 62
     0
100
AcDbLine
 10
-252.9996337890623
 20
-22450.0
 30
0.0
 11
-258.9992675781248
 21
-22450.0
 31
0.0
  0
INSERT
  5
8F1
330
7C
100
AcDbEntity
  8
__
 62
     0
100
AcDbBlockReference
  2
_DOT
 10
-226.9999999999998
 20
-22450.0
 30
0.0
 41
5.9996337890625
 42
5.9996337890625
 43
5.9996337890625
 50
180.0
  0
INSERT
  5
8F2
330
7C
100
AcDbEntity
  8
__
 62
     0
100
AcDbBlockReference
  2
_DOT
 10
-246.9999999999998
 20
-22450.0
 30
0.0
 41
5.9996337890625
 42
5.9996337890625
 43
5.9996337890625
  0
MTEXT
  5
8F3
330
7C
100
AcDbEntity
  8
__
 62
     0
100
AcDbMText
 10
-236.9999999999998
 20
-22438.37991898148
 30
0.0
 40
21.24016203703704
 41
0.0
 71
     5
 72
     1
  1
\A1;20
  7
YUGOTHIC_MEDIUM
  0
POINT
  5
8F4
330
7C
100
AcDbEntity
  8
DEFPOINTS
 62
     0
100
AcDbPoint
 10
-226.9999999999998
 20
-22550.0
 30
0.0
  0
POINT
  5
306C
330
7C
100
AcDbEntity
  8
DEFPOINTS
 62
     0
100
AcDbPoint
 10
-246.9999999999998
 20
-22550.0
 30
0.0
  0
POINT
  5
306D
330
7C
100
AcDbEntity
  8
DEFPOINTS
 62
     0
100
AcDbPoint
 10
-246.9999999999998
 20
-22450.0
 30
0.0
  0
ENDBLK
  5
7E
330
7C
100
AcDbEntity
  8
0
100
AcDbBlockEnd
  0
BLOCK
  5
80
330
7F
100
AcDbEntity
  8
0
100
AcDbBlockBegin
  2
*D11
 70
     1
 10
0.0
 20
0.0
 30
0.0
  3
*D11
  1

  0
LINE
  5
8F5
330
7F
100
AcDbEntity
  8
__
 62
     0
100
AcDbLine
 10
280.0000000000002
 20
-22530.0
 30
0.0
 11
280.0000000000002
 21
-22450.0
 31
0.0
  0
LINE
  5
8F6
330
7F
100
AcDbEntity
  8
__
 62
     0
100
AcDbLine
 10
-226.9999999999998
 20
-22530.0
 30
0.0
 11
-226.9999999999998
 21
-22450.0
 31
0.0
  0
LINE
  5
8F7
330
7F
100
AcDbEntity
  8
__
 62
     0
100
AcDbLine
 10
274.0003662109377
 20
-22450.0
 30
0.0
 11
-221.0003662109373
 21
-22450.0
 31
0.0
  0
INSERT
  5
8F8
330
7F
100
AcDbEntity
  8
__
 62
     0
100
AcDbBlockReference
  2
_DOT
 10
280.0000000000002
 20
-22450.0
 30
0.0
 41
5.9996337890625
 42
5.9996337890625
 43
5.9996337890625
  0
INSERT
  5
97B
330
7F
100
AcDbEntity
  8
__
 62
     0
100
AcDbBlockReference
  2
_DOT
 10
-226.9999999999998
 20
-22450.0
 30
0.0
 41
5.9996337890625
 42
5.9996337890625
 43
5.9996337890625
 50
180.0
  0
MTEXT
  5
9FE
330
7F
100
AcDbEntity
  8
__
 62
     0
100
AcDbMText
 10
26.50000000000023
 20
-22438.37991898148
 30
0.0
 40
21.24016203703704
 41
0.0
 71
     5
 72
     1
  1
\A1;507
  7
YUGOTHIC_MEDIUM
  0
POINT
  5
9FF
330
7F
100
AcDbEntity
  8
DEFPOINTS
 62
     0
100
AcDbPoint
 10
280.0000000000002
 20
-22550.0
 30
0.0
  0
POINT
  5
A00
330
7F
100
AcDbEntity
  8
DEFPOINTS
 62
     0
100
AcDbPoint
 10
-226.9999999999998
 20
-22550.0
 30
0.0
  0
POINT
  5
A01
330
7F
100
AcDbEntity
  8
DEFPOINTS
 62
     0
100
AcDbPoint
 10
-226.9999999999998
 20
-22450.0
 30
0.0
  0
ENDBLK
  5
81
330
7F
100
AcDbEntity
  8
0
100
AcDbBlockEnd
  0
BLOCK
  5
83
330
82
100
AcDbEntity
  8
0
100
AcDbBlockBegin
  2
*D12
 70
     1
 10
0.0
 20
0.0
 30
0.0
  3
*D12
  1

  0
LINE
  5
A02
330
82
100
AcDbEntity
  8
__
 62
     0
100
AcDbLine
 10
-1280.0
 20
-23530.0
 30
0.0
 11
-1280.0
 21
-23370.0
 31
0.0
  0
LINE
  5
A03
330
82
100
AcDbEntity
  8
__
 62
     0
100
AcDbLine
 10
-1300.0
 20
-23530.0
 30
0.0
 11
-1300.0
 21
-23370.0
 31
0.0
  0
LINE
  5
A04
330
82
100
AcDbEntity
  8
__
 62
     0
100
AcDbLine
 10
-1280.0
 20
-23370.0
 30
0.0
 11
-1300.0
 21
-23370.0
 31
0.0
  0
LINE
  5
A05
330
82
100
AcDbEntity
  8
__
 62
     0
100
AcDbLine
 10
-1274.000366210938
 20
-23370.0
 30
0.0
 11
-1268.000732421875
 21
-23370.0
 31
0.0
  0
LINE
  5
A88
330
82
100
AcDbEntity
  8
__
 62
     0
100
AcDbLine
 10
-1305.999633789063
 20
-23370.0
 30
0.0
 11
-1311.999267578125
 21
-23370.0
 31
0.0
  0
INSERT
  5
B0B
330
82
100
AcDbEntity
  8
__
 62
     0
100
AcDbBlockReference
  2
_DOT
 10
-1280.0
 20
-23370.0
 30
0.0
 41
5.9996337890625
 42
5.9996337890625
 43
5.9996337890625
 50
180.0
  0
INSERT
  5
B0C
330
82
100
AcDbEntity
  8
__
 62
     0
100
AcDbBlockReference
  2
_DOT
 10
-1300.0
 20
-23370.0
 30
0.0
 41
5.9996337890625
 42
5.9996337890625
 43
5.9996337890625
  0
MTEXT
  5
B0D
330
82
100
AcDbEntity
  8
__
 62
     0
100
AcDbMText
 10
-1290.0
 20
-23358.37991898148
 30
0.0
 40
21.24016203703704
 41
0.0
 71
     5
 72
     1
  1
\A1;20
  7
YUGOTHIC_MEDIUM
  0
POINT
  5
B0E
330
82
100
AcDbEntity
  8
DEFPOINTS
 62
     0
100
AcDbPoint
 10
-1280.0
 20
-23550.0
 30
0.0
  0
POINT
  5
3070
330
82
100
AcDbEntity
  8
DEFPOINTS
 62
     0
100
AcDbPoint
 10
-1300.0
 20
-23550.0
 30
0.0
  0
POINT
  5
3071
330
82
100
AcDbEntity
  8
DEFPOINTS
 62
     0
100
AcDbPoint
 10
-1300.0
 20
-23370.0
 30
0.0
  0
ENDBLK
  5
84
330
82
100
AcDbEntity
  8
0
100
AcDbBlockEnd
  0
BLOCK
  5
86
330
85
100
AcDbEntity
  8
0
100
AcDbBlockBegin
  2
*D13
 70
     1
 10
0.0
 20
0.0
 30
0.0
  3
*D13
  1

  0
LINE
  5
B0F
330
85
100
AcDbEntity
  8
__
 62
     0
100
AcDbLine
 10
280.0000000000002
 20
-23530.0
 30
0.0
 11
280.0000000000002
 21
-23370.0
 31
0.0
  0
LINE
  5
B10
330
85
100
AcDbEntity
  8
__
 62
     0
100
AcDbLine
 10
-1280.0
 20
-23530.0
 30
0.0
 11
-1280.0
 21
-23370.0
 31
0.0
  0
LINE
  5
B11
330
85
100
AcDbEntity
  8
__
 62
     0
100
AcDbLine
 10
274.0003662109377
 20
-23370.0
 30
0.0
 11
-1274.000366210938
 21
-23370.0
 31
0.0
  0
INSERT
  5
B12
330
85
100
AcDbEntity
  8
__
 62
     0
100
AcDbBlockReference
  2
_DOT
 10
280.0000000000002
 20
-23370.0
 30
0.0
 41
5.9996337890625
 42
5.9996337890625
 43
5.9996337890625
  0
INSERT
  5
B95
330
85
100
AcDbEntity
  8
__
 62
     0
100
AcDbBlockReference
  2
_DOT
 10
-1280.0
 20
-23370.0
 30
0.0
 41
5.9996337890625
 42
5.9996337890625
 43
5.9996337890625
 50
180.0
  0
MTEXT
  5
C18
330
85
100
AcDbEntity
  8
__
 62
     0
100
AcDbMText
 10
-499.9999999999999
 20
-23358.37991898148
 30
0.0
 40
21.24016203703704
 41
0.0
 71
     5
 72
     1
  1
\A1;1560
  7
YUGOTHIC_MEDIUM
  0
POINT
  5
C19
330
85
100
AcDbEntity
  8
DEFPOINTS
 62
     0
100
AcDbPoint
 10
280.0000000000002
 20
-23550.0
 30
0.0
  0
POINT
  5
C1A
330
85
100
AcDbEntity
  8
DEFPOINTS
 62
     0
100
AcDbPoint
 10
-1280.0
 20
-23550.0
 30
0.0
  0
POINT
  5
C1B
330
85
100
AcDbEntity
  8
DEFPOINTS
 62
     0
100
AcDbPoint
 10
-1280.0
 20
-23370.0
 30
0.0
  0
ENDBLK
  5
87
330
85
100
AcDbEntity
  8
0
100
AcDbBlockEnd
  0
BLOCK
  5
89
330
88
100
AcDbEntity
  8
0
100
AcDbBlockBegin
  2
*D14
 70
     1
 10
0.0
 20
0.0
 30
0.0
  3
*D14
  1

  0
LINE
  5
C1C
330
88
100
AcDbEntity
  8
__
 62
     0
100
AcDbLine
 10
300.0000000000002
 20
-23530.0
 30
0.0
 11
300.0000000000002
 21
-23370.0
 31
0.0
  0
LINE
  5
C1D
330
88
100
AcDbEntity
  8
__
 62
     0
100
AcDbLine
 10
280.0000000000002
 20
-23530.0
 30
0.0
 11
280.0000000000002
 21
-23370.0
 31
0.0
  0
LINE
  5
C1E
330
88
100
AcDbEntity
  8
__
 62
     0
100
AcDbLine
 10
300.0000000000002
 20
-23370.0
 30
0.0
 11
280.0000000000002
 21
-23370.0
 31
0.0
  0
LINE
  5
C1F
330
88
100
AcDbEntity
  8
__
 62
     0
100
AcDbLine
 10
305.9996337890627
 20
-23370.0
 30
0.0
 11
311.9992675781252
 21
-23370.0
 31
0.0
  0
LINE
  5
CA2
330
88
100
AcDbEntity
  8
__
 62
     0
100
AcDbLine
 10
274.0003662109377
 20
-23370.0
 30
0.0
 11
268.0007324218752
 21
-23370.0
 31
0.0
  0
INSERT
  5
D25
330
88
100
AcDbEntity
  8
__
 62
     0
100
AcDbBlockReference
  2
_DOT
 10
300.0000000000002
 20
-23370.0
 30
0.0
 41
5.9996337890625
 42
5.9996337890625
 43
5.9996337890625
 50
180.0
  0
INSERT
  5
D26
330
88
100
AcDbEntity
  8
__
 62
     0
100
AcDbBlockReference
  2
_DOT
 10
280.0000000000002
 20
-23370.0
 30
0.0
 41
5.9996337890625
 42
5.9996337890625
 43
5.9996337890625
  0
MTEXT
  5
D27
330
88
100
AcDbEntity
  8
__
 62
     0
100
AcDbMText
 10
290.0000000000002
 20
-23358.37991898148
 30
0.0
 40
21.24016203703704
 41
0.0
 71
     5
 72
     1
  1
\A1;20
  7
YUGOTHIC_MEDIUM
  0
POINT
  5
D28
330
88
100
AcDbEntity
  8
DEFPOINTS
 62
     0
100
AcDbPoint
 10
300.0000000000002
 20
-23550.0
 30
0.0
  0
POINT
  5
3074
330
88
100
AcDbEntity
  8
DEFPOINTS
 62
     0
100
AcDbPoint
 10
280.0000000000002
 20
-23550.0
 30
0.0
  0
POINT
  5
3075
330
88
100
AcDbEntity
  8
DEFPOINTS
 62
     0
100
AcDbPoint
 10
280.0000000000002
 20
-23370.0
 30
0.0
  0
ENDBLK
  5
8A
330
88
100
AcDbEntity
  8
0
100
AcDbBlockEnd
  0
BLOCK
  5
8C
330
8B
100
AcDbEntity
  8
0
100
AcDbBlockBegin
  2
*D15
 70
     1
 10
0.0
 20
0.0
 30
0.0
  3
*D15
  1

  0
LINE
  5
D29
330
8B
100
AcDbEntity
  8
__
 62
     0
100
AcDbLine
 10
-772.9999999999998
 20
-23530.0
 30
0.0
 11
-772.9999999999998
 21
-23450.0
 31
0.0
  0
LINE
  5
D2A
330
8B
100
AcDbEntity
  8
__
 62
     0
100
AcDbLine
 10
-1280.0
 20
-23530.0
 30
0.0
 11
-1280.0
 21
-23450.0
 31
0.0
  0
LINE
  5
D2B
330
8B
100
AcDbEntity
  8
__
 62
     0
100
AcDbLine
 10
-778.9996337890623
 20
-23450.0
 30
0.0
 11
-1274.000366210938
 21
-23450.0
 31
0.0
  0
INSERT
  5
D2C
330
8B
100
AcDbEntity
  8
__
 62
     0
100
AcDbBlockReference
  2
_DOT
 10
-772.9999999999998
 20
-23450.0
 30
0.0
 41
5.9996337890625
 42
5.9996337890625
 43
5.9996337890625
  0
INSERT
  5
DAF
330
8B
100
AcDbEntity
  8
__
 62
     0
100
AcDbBlockReference
  2
_DOT
 10
-1280.0
 20
-23450.0
 30
0.0
 41
5.9996337890625
 42
5.9996337890625
 43
5.9996337890625
 50
180.0
  0
MTEXT
  5
E32
330
8B
100
AcDbEntity
  8
__
 62
     0
100
AcDbMText
 10
-1026.5
 20
-23438.37991898148
 30
0.0
 40
21.24016203703704
 41
0.0
 71
     5
 72
     1
  1
\A1;507
  7
YUGOTHIC_MEDIUM
  0
POINT
  5
E33
330
8B
100
AcDbEntity
  8
DEFPOINTS
 62
     0
100
AcDbPoint
 10
-772.9999999999998
 20
-23550.0
 30
0.0
  0
POINT
  5
E34
330
8B
100
AcDbEntity
  8
DEFPOINTS
 62
     0
100
AcDbPoint
 10
-1280.0
 20
-23550.0
 30
0.0
  0
POINT
  5
E35
330
8B
100
AcDbEntity
  8
DEFPOINTS
 62
     0
100
AcDbPoint
 10
-1280.0
 20
-23450.0
 30
0.0
  0
ENDBLK
  5
8D
330
8B
100
AcDbEntity
  8
0
100
AcDbBlockEnd
  0
BLOCK
  5
8F
330
8E
100
AcDbEntity
  8
0
100
AcDbBlockBegin
  2
*D16
 70
     1
 10
0.0
 20
0.0
 30
0.0
  3
*D16
  1

  0
LINE
  5
E36
330
8E
100
AcDbEntity
  8
__
 62
     0
100
AcDbLine
 10
-752.9999999999998
 20
-23530.0
 30
0.0
 11
-752.9999999999998
 21
-23450.0
 31
0.0
  0
LINE
  5
E37
330
8E
100
AcDbEntity
  8
__
 62
     0
100
AcDbLine
 10
-772.9999999999998
 20
-23530.0
 30
0.0
 11
-772.9999999999998
 21
-23450.0
 31
0.0
  0
LINE
  5
E38
330
8E
100
AcDbEntity
  8
__
 62
     0
100
AcDbLine
 10
-752.9999999999998
 20
-23450.0
 30
0.0
 11
-772.9999999999998
 21
-23450.0
 31
0.0
  0
LINE
  5
E39
330
8E
100
AcDbEntity
  8
__
 62
     0
100
AcDbLine
 10
-747.0003662109373
 20
-23450.0
 30
0.0
 11
-741.0007324218748
 21
-23450.0
 31
0.0
  0
LINE
  5
EBC
330
8E
100
AcDbEntity
  8
__
 62
     0
100
AcDbLine
 10
-778.9996337890623
 20
-23450.0
 30
0.0
 11
-784.9992675781248
 21
-23450.0
 31
0.0
  0
INSERT
  5
F3F
330
8E
100
AcDbEntity
  8
__
 62
     0
100
AcDbBlockReference
  2
_DOT
 10
-752.9999999999998
 20
-23450.0
 30
0.0
 41
5.9996337890625
 42
5.9996337890625
 43
5.9996337890625
 50
180.0
  0
INSERT
  5
F40
330
8E
100
AcDbEntity
  8
__
 62
     0
100
AcDbBlockReference
  2
_DOT
 10
-772.9999999999998
 20
-23450.0
 30
0.0
 41
5.9996337890625
 42
5.9996337890625
 43
5.9996337890625
  0
MTEXT
  5
F41
330
8E
100
AcDbEntity
  8
__
 62
     0
100
AcDbMText
 10
-762.9999999999998
 20
-23438.37991898148
 30
0.0
 40
21.24016203703704
 41
0.0
 71
     5
 72
     1
  1
\A1;20
  7
YUGOTHIC_MEDIUM
  0
POINT
  5
F42
330
8E
100
AcDbEntity
  8
DEFPOINTS
 62
     0
100
AcDbPoint
 10
-752.9999999999998
 20
-23550.0
 30
0.0
  0
POINT
  5
3078
330
8E
100
AcDbEntity
  8
DEFPOINTS
 62
     0
100
AcDbPoint
 10
-772.9999999999998
 20
-23550.0
 30
0.0
  0
POINT
  5
3079
330
8E
100
AcDbEntity
  8
DEFPOINTS
 62
     0
100
AcDbPoint
 10
-772.9999999999998
 20
-23450.0
 30
0.0
  0
ENDBLK
  5
90
330
8E
100
AcDbEntity
  8
0
100
AcDbBlockEnd
  0
BLOCK
  5
92
330
91
100
AcDbEntity
  8
0
100
AcDbBlockBegin
  2
*D17
 70
     1
 10
0.0
 20
0.0
 30
0.0
  3
*D17
  1

  0
LINE
  5
F43
330
91
100
AcDbEntity
  8
__
 62
     0
100
AcDbLine
 10
-246.9999999999998
 20
-23530.0
 30
0.0
 11
-246.9999999999998
 21
-23450.0
 31
0.0
  0
LINE
  5
F44
330
91
100
AcDbEntity
  8
__
 62
     0
100
AcDbLine
 10
-752.9999999999998
 20
-23530.0
 30
0.0
 11
-752.9999999999998
 21
-23450.0
 31
0.0
  0
LINE
  5
F45
330
91
100
AcDbEntity
  8
__
 62
     0
100
AcDbLine
 10
-252.9996337890623
 20
-23450.0
 30
0.0
 11
-747.0003662109373
 21
-23450.0
 31
0.0
  0
INSERT
  5
F46
330
91
100
AcDbEntity
  8
__
 62
     0
100
AcDbBlockReference
  2
_DOT
 10
-246.9999999999998
 20
-23450.0
 30
0.0
 41
5.9996337890625
 42
5.9996337890625
 43
5.9996337890625
  0
INSERT
  5
FC9
330
91
100
AcDbEntity
  8
__
 62
     0
100
AcDbBlockReference
  2
_DOT
 10
-752.9999999999998
 20
-23450.0
 30
0.0
 41
5.9996337890625
 42
5.9996337890625
 43
5.9996337890625
 50
180.0
  0
MTEXT
  5
104C
330
91
100
AcDbEntity
  8
__
 62
     0
100
AcDbMText
 10
-499.9999999999998
 20
-23438.37991898148
 30
0.0
 40
21.24016203703704
 41
0.0
 71
     5
 72
     1
  1
\A1;506
  7
YUGOTHIC_MEDIUM
  0
POINT
  5
104D
330
91
100
AcDbEntity
  8
DEFPOINTS
 62
     0
100
AcDbPoint
 10
-246.9999999999998
 20
-23550.0
 30
0.0
  0
POINT
  5
104E
330
91
100
AcDbEntity
  8
DEFPOINTS
 62
     0
100
AcDbPoint
 10
-752.9999999999998
 20
-23550.0
 30
0.0
  0
POINT
  5
104F
330
91
100
AcDbEntity
  8
DEFPOINTS
 62
     0
100
AcDbPoint
 10
-752.9999999999998
 20
-23450.0
 30
0.0
  0
ENDBLK
  5
93
330
91
100
AcDbEntity
  8
0
100
AcDbBlockEnd
  0
BLOCK
  5
95
330
94
100
AcDbEntity
  8
0
100
AcDbBlockBegin
  2
*D18
 70
     1
 10
0.0
 20
0.0
 30
0.0
  3
*D18
  1

  0
LINE
  5
1050
330
94
100
AcDbEntity
  8
__
 62
     0
100
AcDbLine
 10
-226.9999999999998
 20
-23530.0
 30
0.0
 11
-226.9999999999998
 21
-23450.0
 31
0.0
  0
LINE
  5
1051
330
94
100
AcDbEntity
  8
__
 62
     0
100
AcDbLine
 10
-246.9999999999998
 20
-23530.0
 30
0.0
 11
-246.9999999999998
 21
-23450.0
 31
0.0
  0
LINE
  5
1052
330
94
100
AcDbEntity
  8
__
 62
     0
100
AcDbLine
 10
-226.9999999999998
 20
-23450.0
 30
0.0
 11
-246.9999999999998
 21
-23450.0
 31
0.0
  0
LINE
  5
1053
330
94
100
AcDbEntity
  8
__
 62
     0
100
AcDbLine
 10
-221.0003662109373
 20
-23450.0
 30
0.0
 11
-215.0007324218748
 21
-23450.0
 31
0.0
  0
LINE
  5
10D6
330
94
100
AcDbEntity
  8
__
 62
     0
100
AcDbLine
 10
-252.9996337890623
 20
-23450.0
 30
0.0
 11
-258.9992675781248
 21
-23450.0
 31
0.0
  0
INSERT
  5
1159
330
94
100
AcDbEntity
  8
__
 62
     0
100
AcDbBlockReference
  2
_DOT
 10
-226.9999999999998
 20
-23450.0
 30
0.0
 41
5.9996337890625
 42
5.9996337890625
 43
5.9996337890625
 50
180.0
  0
INSERT
  5
115A
330
94
100
AcDbEntity
  8
__
 62
     0
100
AcDbBlockReference
  2
_DOT
 10
-246.9999999999998
 20
-23450.0
 30
0.0
 41
5.9996337890625
 42
5.9996337890625
 43
5.9996337890625
  0
MTEXT
  5
115B
330
94
100
AcDbEntity
  8
__
 62
     0
100
AcDbMText
 10
-236.9999999999998
 20
-23438.37991898148
 30
0.0
 40
21.24016203703704
 41
0.0
 71
     5
 72
     1
  1
\A1;20
  7
YUGOTHIC_MEDIUM
  0
POINT
  5
115C
330
94
100
AcDbEntity
  8
DEFPOINTS
 62
     0
100
AcDbPoint
 10
-226.9999999999998
 20
-23550.0
 30
0.0
  0
POINT
  5
307C
330
94
100
AcDbEntity
  8
DEFPOINTS
 62
     0
100
AcDbPoint
 10
-246.9999999999998
 20
-23550.0
 30
0.0
  0
POINT
  5
307D
330
94
100
AcDbEntity
  8
DEFPOINTS
 62
     0
100
AcDbPoint
 10
-246.9999999999998
 20
-23450.0
 30
0.0
  0
ENDBLK
  5
96
330
94
100
AcDbEntity
  8
0
100
AcDbBlockEnd
  0
BLOCK
  5
98
330
97
100
AcDbEntity
  8
0
100
AcDbBlockBegin
  2
*D19
 70
     1
 10
0.0
 20
0.0
 30
0.0
  3
*D19
  1

  0
LINE
  5
115D
330
97
100
AcDbEntity
  8
__
 62
     0
100
AcDbLine
 10
280.0000000000002
 20
-23530.0
 30
0.0
 11
280.0000000000002
 21
-23450.0
 31
0.0
  0
LINE
  5
115E
330
97
100
AcDbEntity
  8
__
 62
     0
100
AcDbLine
 10
-226.9999999999998
 20
-23530.0
 30
0.0
 11
-226.9999999999998
 21
-23450.0
 31
0.0
  0
LINE
  5
115F
330
97
100
AcDbEntity
  8
__
 62
     0
100
AcDbLine
 10
274.0003662109377
 20
-23450.0
 30
0.0
 11
-221.0003662109373
 21
-23450.0
 31
0.0
  0
INSERT
  5
1160
330
97
100
AcDbEntity
  8
__
 62
     0
100
AcDbBlockReference
  2
_DOT
 10
280.0000000000002
 20
-23450.0
 30
0.0
 41
5.9996337890625
 42
5.9996337890625
 43
5.9996337890625
  0
INSERT
  5
11E3
330
97
100
AcDbEntity
  8
__
 62
     0
100
AcDbBlockReference
  2
_DOT
 10
-226.9999999999998
 20
-23450.0
 30
0.0
 41
5.9996337890625
 42
5.9996337890625
 43
5.9996337890625
 50
180.0
  0
MTEXT
  5
1266
330
97
100
AcDbEntity
  8
__
 62
     0
100
AcDbMText
 10
26.50000000000023
 20
-23438.37991898148
 30
0.0
 40
21.24016203703704
 41
0.0
 71
     5
 72
     1
  1
\A1;507
  7
YUGOTHIC_MEDIUM
  0
POINT
  5
1267
330
97
100
AcDbEntity
  8
DEFPOINTS
 62
     0
100
AcDbPoint
 10
280.0000000000002
 20
-23550.0
 30
0.0
  0
POINT
  5
1268
330
97
100
AcDbEntity
  8
DEFPOINTS
 62
     0
100
AcDbPoint
 10
-226.9999999999998
 20
-23550.0
 30
0.0
  0
POINT
  5
1269
330
97
100
AcDbEntity
  8
DEFPOINTS
 62
     0
100
AcDbPoint
 10
-226.9999999999998
 20
-23450.0
 30
0.0
  0
ENDBLK
  5
99
330
97
100
AcDbEntity
  8
0
100
AcDbBlockEnd
  0
BLOCK
  5
9B
330
9A
100
AcDbEntity
  8
0
100
AcDbBlockBegin
  2
*D20
 70
     1
 10
0.0
 20
0.0
 30
0.0
  3
*D20
  1

  0
LINE
  5
126A
330
9A
100
AcDbEntity
  8
__
 62
     0
100
AcDbLine
 10
-1170.0
 20
-23910.0
 30
0.0
 11
-1170.0
 21
-23990.0
 31
0.0
  0
LINE
  5
126B
330
9A
100
AcDbEntity
  8
__
 62
     0
100
AcDbLine
 10
-1300.0
 20
-23910.0
 30
0.0
 11
-1300.0
 21
-23990.0
 31
0.0
  0
LINE
  5
126C
330
9A
100
AcDbEntity
  8
__
 62
     0
100
AcDbLine
 10
-1175.999633789063
 20
-23990.0
 30
0.0
 11
-1294.000366210938
 21
-23990.0
 31
0.0
  0
INSERT
  5
126D
330
9A
100
AcDbEntity
  8
__
 62
     0
100
AcDbBlockReference
  2
_DOT
 10
-1170.0
 20
-23990.0
 30
0.0
 41
5.9996337890625
 42
5.9996337890625
 43
5.9996337890625
  0
INSERT
  5
12F0
330
9A
100
AcDbEntity
  8
__
 62
     0
100
AcDbBlockReference
  2
_DOT
 10
-1300.0
 20
-23990.0
 30
0.0
 41
5.9996337890625
 42
5.9996337890625
 43
5.9996337890625
 50
180.0
  0
MTEXT
  5
1373
330
9A
100
AcDbEntity
  8
__
 62
     0
100
AcDbMText
 10
-1235.0
 20
-23978.37991898148
 30
0.0
 40
21.24016203703704
 41
0.0
 71
     5
 72
     1
  1
\A1;130
  7
YUGOTHIC_MEDIUM
  0
POINT
  5
1374
330
9A
100
AcDbEntity
  8
DEFPOINTS
 62
     0
100
AcDbPoint
 10
-1170.0
 20
-23890.0
 30
0.0
  0
POINT
  5
1375
330
9A
100
AcDbEntity
  8
DEFPOINTS
 62
     0
100
AcDbPoint
 10
-1300.0
 20
-23890.0
 30
0.0
  0
POINT
  5
1376
330
9A
100
AcDbEntity
  8
DEFPOINTS
 62
     0
100
AcDbPoint
 10
-1300.0
 20
-23990.0
 30
0.0
  0
ENDBLK
  5
9C
330
9A
100
AcDbEntity
  8
0
100
AcDbBlockEnd
  0
BLOCK
  5
9E
330
9D
100
AcDbEntity
  8
0
100
AcDbBlockBegin
  2
*D21
 70
     1
 10
0.0
 20
0.0
 30
0.0
  3
*D21
  1

  0
LINE
  5
1377
330
9D
100
AcDbEntity
  8
__
 62
     0
100
AcDbLine
 10
-499.9999999999998
 20
-23910.0
 30
0.0
 11
-499.9999999999998
 21
-23990.0
 31
0.0
  0
LINE
  5
1378
330
9D
100
AcDbEntity
  8
__
 62
     0
100
AcDbLine
 10
-1170.0
 20
-23910.0
 30
0.0
 11
-1170.0
 21
-23990.0
 31
0.0
  0
LINE
  5
1379
330
9D
100
AcDbEntity
  8
__
 62
     0
100
AcDbLine
 10
-505.9996337890623
 20
-23990.0
 30
0.0
 11
-1164.000366210938
 21
-23990.0
 31
0.0
  0
INSERT
  5
137A
330
9D
100
AcDbEntity
  8
__
 62
     0
100
AcDbBlockReference
  2
_DOT
 10
-499.9999999999998
 20
-23990.0
 30
0.0
 41
5.9996337890625
 42
5.9996337890625
 43
5.9996337890625
  0
INSERT
  5
13FD
330
9D
100
AcDbEntity
  8
__
 62
     0
100
AcDbBlockReference
  2
_DOT
 10
-1170.0
 20
-23990.0
 30
0.0
 41
5.9996337890625
 42
5.9996337890625
 43
5.9996337890625
 50
180.0
  0
MTEXT
  5
1480
330
9D
100
AcDbEntity
  8
__
 62
     0
100
AcDbMText
 10
-834.9999999999999
 20
-23978.37991898148
 30
0.0
 40
21.24016203703704
 41
0.0
 71
     5
 72
     1
  1
\A1;670
  7
YUGOTHIC_MEDIUM
  0
POINT
  5
1481
330
9D
100
AcDbEntity
  8
DEFPOINTS
 62
     0
100
AcDbPoint
 10
-499.9999999999998
 20
-23890.0
 30
0.0
  0
POINT
  5
1482
330
9D
100
AcDbEntity
  8
DEFPOINTS
 62
     0
100
AcDbPoint
 10
-1170.0
 20
-23890.0
 30
0.0
  0
POINT
  5
1483
330
9D
100
AcDbEntity
  8
DEFPOINTS
 62
     0
100
AcDbPoint
 10
-1170.0
 20
-23990.0
 30
0.0
  0
ENDBLK
  5
9F
330
9D
100
AcDbEntity
  8
0
100
AcDbBlockEnd
  0
BLOCK
  5
A1
330
A0
100
AcDbEntity
  8
0
100
AcDbBlockBegin
  2
*D22
 70
     1
 10
0.0
 20
0.0
 30
0.0
  3
*D22
  1

  0
LINE
  5
1484
330
A0
100
AcDbEntity
  8
__
 62
     0
100
AcDbLine
 10
300.0000000000002
 20
-23910.0
 30
0.0
 11
300.0000000000002
 21
-23990.0
 31
0.0
  0
LINE
  5
1485
330
A0
100
AcDbEntity
  8
__
 62
     0
100
AcDbLine
 10
170.0000000000002
 20
-23910.0
 30
0.0
 11
170.0000000000002
 21
-23990.0
 31
0.0
  0
LINE
  5
1486
330
A0
100
AcDbEntity
  8
__
 62
     0
100
AcDbLine
 10
294.0003662109377
 20
-23990.0
 30
0.0
 11
175.9996337890627
 21
-23990.0
 31
0.0
  0
INSERT
  5
1487
330
A0
100
AcDbEntity
  8
__
 62
     0
100
AcDbBlockReference
  2
_DOT
 10
300.0000000000002
 20
-23990.0
 30
0.0
 41
5.9996337890625
 42
5.9996337890625
 43
5.9996337890625
  0
INSERT
  5
150A
330
A0
100
AcDbEntity
  8
__
 62
     0
100
AcDbBlockReference
  2
_DOT
 10
170.0000000000002
 20
-23990.0
 30
0.0
 41
5.9996337890625
 42
5.9996337890625
 43
5.9996337890625
 50
180.0
  0
MTEXT
  5
158D
330
A0
100
AcDbEntity
  8
__
 62
     0
100
AcDbMText
 10
235.0000000000002
 20
-23978.37991898148
 30
0.0
 40
21.24016203703704
 41
0.0
 71
     5
 72
     1
  1
\A1;130
  7
YUGOTHIC_MEDIUM
  0
POINT
  5
158E
330
A0
100
AcDbEntity
  8
DEFPOINTS
 62
     0
100
AcDbPoint
 10
300.0000000000002
 20
-23890.0
 30
0.0
  0
POINT
  5
158F
330
A0
100
AcDbEntity
  8
DEFPOINTS
 62
     0
100
AcDbPoint
 10
170.0000000000002
 20
-23890.0
 30
0.0
  0
POINT
  5
1590
330
A0
100
AcDbEntity
  8
DEFPOINTS
 62
     0
100
AcDbPoint
 10
170.0000000000002
 20
-23990.0
 30
0.0
  0
ENDBLK
  5
A2
330
A0
100
AcDbEntity
  8
0
100
AcDbBlockEnd
  0
BLOCK
  5
A4
330
A3
100
AcDbEntity
  8
0
100
AcDbBlockBegin
  2
*D23
 70
     1
 10
0.0
 20
0.0
 30
0.0
  3
*D23
  1

  0
LINE
  5
1591
330
A3
100
AcDbEntity
  8
__
 62
     0
100
AcDbLine
 10
300.0000000000002
 20
-23490.0
 30
0.0
 11
300.0000000000002
 21
-23290.0
 31
0.0
  0
LINE
  5
1592
330
A3
100
AcDbEntity
  8
__
 62
     0
100
AcDbLine
 10
-1300.0
 20
-23490.0
 30
0.0
 11
-1300.0
 21
-23290.0
 31
0.0
  0
LINE
  5
1593
330
A3
100
AcDbEntity
  8
__
 62
     0
100
AcDbLine
 10
294.0003662109377
 20
-23290.0
 30
0.0
 11
-1294.000366210938
 21
-23290.0
 31
0.0
  0
INSERT
  5
1594
330
A3
100
AcDbEntity
  8
__
 62
     0
100
AcDbBlockReference
  2
_DOT
 10
300.0000000000002
 20
-23290.0
 30
0.0
 41
5.9996337890625
 42
5.9996337890625
 43
5.9996337890625
  0
INSERT
  5
1617
330
A3
100
AcDbEntity
  8
__
 62
     0
100
AcDbBlockReference
  2
_DOT
 10
-1300.0
 20
-23290.0
 30
0.0
 41
5.9996337890625
 42
5.9996337890625
 43
5.9996337890625
 50
180.0
  0
MTEXT
  5
169A
330
A3
100
AcDbEntity
  8
__
 62
     0
100
AcDbMText
 10
-499.9999999999999
 20
-23278.37991898148
 30
0.0
 40
21.24016203703704
 41
0.0
 71
     5
 72
     1
  1
\A1;1600
  7
YUGOTHIC_MEDIUM
  0
POINT
  5
169B
330
A3
100
AcDbEntity
  8
DEFPOINTS
 62
     0
100
AcDbPoint
 10
300.0000000000002
 20
-23510.0
 30
0.0
  0
POINT
  5
169C
330
A3
100
AcDbEntity
  8
DEFPOINTS
 62
     0
100
AcDbPoint
 10
-1300.0
 20
-23510.0
 30
0.0
  0
POINT
  5
169D
330
A3
100
AcDbEntity
  8
DEFPOINTS
 62
     0
100
AcDbPoint
 10
-1300.0
 20
-23290.0
 30
0.0
  0
ENDBLK
  5
A5
330
A3
100
AcDbEntity
  8
0
100
AcDbBlockEnd
  0
BLOCK
  5
A7
330
A6
100
AcDbEntity
  8
0
100
AcDbBlockBegin
  2
*D24
 70
     1
 10
0.0
 20
0.0
 30
0.0
  3
*D24
  1

  0
LINE
  5
169E
330
A6
100
AcDbEntity
  8
__
 62
     0
100
AcDbLine
 10
320.0000000000005
 20
-23570.0
 30
0.0
 11
377.8333333333338
 21
-23570.0
 31
0.0
  0
LINE
  5
169F
330
A6
100
AcDbEntity
  8
__
 62
     0
100
AcDbLine
 10
320.0000000000005
 20
-23550.0
 30
0.0
 11
377.8333333333338
 21
-23550.0
 31
0.0
  0
LINE
  5
16A0
330
A6
100
AcDbEntity
  8
__
 62
     0
100
AcDbLine
 10
377.8333333333338
 20
-23550.0
 30
0.0
 11
377.8333333333338
 21
-23501.61189864762
 31
0.0
  0
LINE
  5
16A1
330
A6
100
AcDbEntity
  8
__
 62
     0
100
AcDbLine
 10
377.8333333333338
 20
-23570.0
 30
0.0
 11
377.8333333333338
 21
-23550.0
 31
0.0
  0
LINE
  5
16A2
330
A6
100
AcDbEntity
  8
__
 62
     0
100
AcDbLine
 10
377.8333333333338
 20
-23575.99963378906
 30
0.0
 11
377.8333333333338
 21
-23581.99926757813
 31
0.0
  0
LINE
  5
1725
330
A6
100
AcDbEntity
  8
__
 62
     0
100
AcDbLine
 10
377.8333333333338
 20
-23544.00036621094
 30
0.0
 11
377.8333333333338
 21
-23538.00073242188
 31
0.0
  0
INSERT
  5
17A8
330
A6
100
AcDbEntity
  8
__
 62
     0
100
AcDbBlockReference
  2
_DOT
 10
377.8333333333338
 20
-23570.0
 30
0.0
 41
5.9996337890625
 42
5.9996337890625
 43
5.9996337890625
 50
90.0
  0
INSERT
  5
17A9
330
A6
100
AcDbEntity
  8
__
 62
     0
100
AcDbBlockReference
  2
_DOT
 10
377.8333333333338
 20
-23550.0
 30
0.0
 41
5.9996337890625
 42
5.9996337890625
 43
5.9996337890625
 50
270.0
  0
MTEXT
  5
17AA
330
A6
100
AcDbEntity
  8
__
 62
     0
100
AcDbMText
 10
366.2132523148155
 20
-23519.80631553475
 30
0.0
 40
21.24016203703704
 41
0.0
 71
     5
 72
     1
  1
\A1;20
  7
YUGOTHIC_MEDIUM
 11
0.0
 21
1.0
 31
0.0
  0
POINT
  5
17AB
330
A6
100
AcDbEntity
  8
DEFPOINTS
 62
     0
100
AcDbPoint
 10
300.0000000000005
 20
-23570.0
 30
0.0
  0
POINT
  5
3084
330
A6
100
AcDbEntity
  8
DEFPOINTS
 62
     0
100
AcDbPoint
 10
300.0000000000005
 20
-23550.0
 30
0.0
  0
POINT
  5
3085
330
A6
100
AcDbEntity
  8
DEFPOINTS
 62
     0
100
AcDbPoint
 10
377.8333333333338
 20
-23550.0
 30
0.0
  0
ENDBLK
  5
A8
330
A6
100
AcDbEntity
  8
0
100
AcDbBlockEnd
  0
BLOCK
  5
AA
330
A9
100
AcDbEntity
  8
0
100
AcDbBlockBegin
  2
*D25
 70
     1
 10
0.0
 20
0.0
 30
0.0
  3
*D25
  1

  0
LINE
  5
17AC
330
A9
100
AcDbEntity
  8
__
 62
     0
100
AcDbLine
 10
320.0000000000005
 20
-23830.0
 30
0.0
 11
400.0000000000005
 21
-23830.0
 31
0.0
  0
LINE
  5
17AD
330
A9
100
AcDbEntity
  8
__
 62
     0
100
AcDbLine
 10
320.0000000000005
 20
-23570.0
 30
0.0
 11
400.0000000000005
 21
-23570.0
 31
0.0
  0
LINE
  5
17AE
330
A9
100
AcDbEntity
  8
__
 62
     0
100
AcDbLine
 10
400.0000000000005
 20
-23824.00036621094
 30
0.0
 11
400.0000000000005
 21
-23575.99963378906
 31
0.0
  0
INSERT
  5
17AF
330
A9
100
AcDbEntity
  8
__
 62
     0
100
AcDbBlockReference
  2
_DOT
 10
400.0000000000005
 20
-23830.0
 30
0.0
 41
5.9996337890625
 42
5.9996337890625
 43
5.9996337890625
 50
270.0
  0
INSERT
  5
1832
330
A9
100
AcDbEntity
  8
__
 62
     0
100
AcDbBlockReference
  2
_DOT
 10
400.0000000000005
 20
-23570.0
 30
0.0
 41
5.9996337890625
 42
5.9996337890625
 43
5.9996337890625
 50
90.0
  0
MTEXT
  5
18B5
330
A9
100
AcDbEntity
  8
__
 62
     0
100
AcDbMText
 10
388.3799189814822
 20
-23700.0
 30
0.0
 40
21.24016203703704
 41
0.0
 71
     5
 72
     1
  1
\A1;260
  7
YUGOTHIC_MEDIUM
 11
0.0
 21
1.0
 31
0.0
  0
POINT
  5
18B6
330
A9
100
AcDbEntity
  8
DEFPOINTS
 62
     0
100
AcDbPoint
 10
300.0000000000005
 20
-23830.0
 30
0.0
  0
POINT
  5
18B7
330
A9
100
AcDbEntity
  8
DEFPOINTS
 62
     0
100
AcDbPoint
 10
300.0000000000005
 20
-23570.0
 30
0.0
  0
POINT
  5
18B8
330
A9
100
AcDbEntity
  8
DEFPOINTS
 62
     0
100
AcDbPoint
 10
400.0000000000005
 20
-23570.0
 30
0.0
  0
ENDBLK
  5
AB
330
A9
100
AcDbEntity
  8
0
100
AcDbBlockEnd
  0
BLOCK
  5
AD
330
AC
100
AcDbEntity
  8
0
100
AcDbBlockBegin
  2
*D26
 70
     1
 10
0.0
 20
0.0
 30
0.0
  3
*D26
  1

  0
LINE
  5
18B9
330
AC
100
AcDbEntity
  8
__
 62
     0
100
AcDbLine
 10
320.0000000000005
 20
-23850.0
 30
0.0
 11
377.8333333333338
 21
-23850.0
 31
0.0
  0
LINE
  5
18BA
330
AC
100
AcDbEntity
  8
__
 62
     0
100
AcDbLine
 10
320.0000000000005
 20
-23830.0
 30
0.0
 11
377.8333333333338
 21
-23830.0
 31
0.0
  0
LINE
  5
18BB
330
AC
100
AcDbEntity
  8
__
 62
     0
100
AcDbLine
 10
377.8333333333338
 20
-23850.0
 30
0.0
 11
377.8333333333338
 21
-23898.38810135238
 31
0.0
  0
LINE
  5
18BC
330
AC
100
AcDbEntity
  8
__
 62
     0
100
AcDbLine
 10
377.8333333333338
 20
-23850.0
 30
0.0
 11
377.8333333333338
 21
-23830.0
 31
0.0
  0
LINE
  5
18BD
330
AC
100
AcDbEntity
  8
__
 62
     0
100
AcDbLine
 10
377.8333333333338
 20
-23855.99963378906
 30
0.0
 11
377.8333333333338
 21
-23861.99926757813
 31
0.0
  0
LINE
  5
1940
330
AC
100
AcDbEntity
  8
__
 62
     0
100
AcDbLine
 10
377.8333333333338
 20
-23824.00036621094
 30
0.0
 11
377.8333333333338
 21
-23818.00073242188
 31
0.0
  0
INSERT
  5
19C3
330
AC
100
AcDbEntity
  8
__
 62
     0
100
AcDbBlockReference
  2
_DOT
 10
377.8333333333338
 20
-23850.0
 30
0.0
 41
5.9996337890625
 42
5.9996337890625
 43
5.9996337890625
 50
90.0
  0
INSERT
  5
19C4
330
AC
100
AcDbEntity
  8
__
 62
     0
100
AcDbBlockReference
  2
_DOT
 10
377.8333333333338
 20
-23830.0
 30
0.0
 41
5.9996337890625
 42
5.9996337890625
 43
5.9996337890625
 50
270.0
  0
MTEXT
  5
19C5
330
AC
100
AcDbEntity
  8
__
 62
     0
100
AcDbMText
 10
366.2132523148155
 20
-23880.19368446525
 30
0.0
 40
21.24016203703704
 41
0.0
 71
     5
 72
     1
  1
\A1;20
  7
YUGOTHIC_MEDIUM
 11
0.0
 21
1.0
 31
0.0
  0
POINT
  5
19C6
330
AC
100
AcDbEntity
  8
DEFPOINTS
 62
     0
100
AcDbPoint
 10
300.0000000000005
 20
-23850.0
 30
0.0
  0
POINT
  5
3088
330
AC
100
AcDbEntity
  8
DEFPOINTS
 62
     0
100
AcDbPoint
 10
300.0000000000005
 20
-23830.0
 30
0.0
  0
POINT
  5
3089
330
AC
100
AcDbEntity
  8
DEFPOINTS
 62
     0
100
AcDbPoint
 10
377.8333333333338
 20
-23830.0
 30
0.0
  0
ENDBLK
  5
AE
330
AC
100
AcDbEntity
  8
0
100
AcDbBlockEnd
  0
BLOCK
  5
B0
330
AF
100
AcDbEntity
  8
0
100
AcDbBlockBegin
  2
*D27
 70
     1
 10
0.0
 20
0.0
 30
0.0
  3
*D27
  1

  0
LINE
  5
19C7
330
AF
100
AcDbEntity
  8
__
 62
     0
100
AcDbLine
 10
-1320.0
 20
-23850.0
 30
0.0
 11
-1400.0
 21
-23850.0
 31
0.0
  0
LINE
  5
19C8
330
AF
100
AcDbEntity
  8
__
 62
     0
100
AcDbLine
 10
-1320.0
 20
-23550.0
 30
0.0
 11
-1400.0
 21
-23550.0
 31
0.0
  0
LINE
  5
19C9
330
AF
100
AcDbEntity
  8
__
 62
     0
100
AcDbLine
 10
-1400.0
 20
-23844.00036621094
 30
0.0
 11
-1400.0
 21
-23555.99963378906
 31
0.0
  0
INSERT
  5
19CA
330
AF
100
AcDbEntity
  8
__
 62
     0
100
AcDbBlockReference
  2
_DOT
 10
-1400.0
 20
-23850.0
 30
0.0
 41
5.9996337890625
 42
5.9996337890625
 43
5.9996337890625
 50
270.0
  0
INSERT
  5
1A4D
330
AF
100
AcDbEntity
  8
__
 62
     0
100
AcDbBlockReference
  2
_DOT
 10
-1400.0
 20
-23550.0
 30
0.0
 41
5.9996337890625
 42
5.9996337890625
 43
5.9996337890625
 50
90.0
  0
MTEXT
  5
1AD0
330
AF
100
AcDbEntity
  8
__
 62
     0
100
AcDbMText
 10
-1411.620081018518
 20
-23700.0
 30
0.0
 40
21.24016203703704
 41
0.0
 71
     5
 72
     1
  1
\A1;300
  7
YUGOTHIC_MEDIUM
 11
0.0
 21
1.0
 31
0.0
  0
POINT
  5
1AD1
330
AF
100
AcDbEntity
  8
DEFPOINTS
 62
     0
100
AcDbPoint
 10
-1300.0
 20
-23850.0
 30
0.0
  0
POINT
  5
1AD2
330
AF
100
AcDbEntity
  8
DEFPOINTS
 62
     0
100
AcDbPoint
 10
-1300.0
 20
-23550.0
 30
0.0
  0
POINT
  5
1AD3
330
AF
100
AcDbEntity
  8
DEFPOINTS
 62
     0
100
AcDbPoint
 10
-1400.0
 20
-23550.0
 30
0.0
  0
ENDBLK
  5
B1
330
AF
100
AcDbEntity
  8
0
100
AcDbBlockEnd
  0
BLOCK
  5
B3
330
B2
100
AcDbEntity
  8
0
100
AcDbBlockBegin
  2
*D28
 70
     1
 10
0.0
 20
0.0
 30
0.0
  3
*D28
  1

  0
LINE
  5
1AD4
330
B2
100
AcDbEntity
  8
__
 62
     0
100
AcDbLine
 10
320.0000000000002
 20
-22570.0
 30
0.0
 11
377.8333333333335
 21
-22570.0
 31
0.0
  0
LINE
  5
1AD5
330
B2
100
AcDbEntity
  8
__
 62
     0
100
AcDbLine
 10
320.0000000000002
 20
-22550.0
 30
0.0
 11
377.8333333333335
 21
-22550.0
 31
0.0
  0
LINE
  5
1AD6
330
B2
100
AcDbEntity
  8
__
 62
     0
100
AcDbLine
 10
377.8333333333335
 20
-22550.0
 30
0.0
 11
377.8333333333335
 21
-22501.61189864762
 31
0.0
  0
LINE
  5
1AD7
330
B2
100
AcDbEntity
  8
__
 62
     0
100
AcDbLine
 10
377.8333333333335
 20
-22570.0
 30
0.0
 11
377.8333333333335
 21
-22550.0
 31
0.0
  0
LINE
  5
1AD8
330
B2
100
AcDbEntity
  8
__
 62
     0
100
AcDbLine
 10
377.8333333333335
 20
-22575.99963378906
 30
0.0
 11
377.8333333333335
 21
-22581.99926757813
 31
0.0
  0
LINE
  5
1B5B
330
B2
100
AcDbEntity
  8
__
 62
     0
100
AcDbLine
 10
377.8333333333335
 20
-22544.00036621094
 30
0.0
 11
377.8333333333335
 21
-22538.00073242188
 31
0.0
  0
INSERT
  5
1BDE
330
B2
100
AcDbEntity
  8
__
 62
     0
100
AcDbBlockReference
  2
_DOT
 10
377.8333333333335
 20
-22570.0
 30
0.0
 41
5.9996337890625
 42
5.9996337890625
 43
5.9996337890625
 50
90.0
  0
INSERT
  5
1BDF
330
B2
100
AcDbEntity
  8
__
 62
     0
100
AcDbBlockReference
  2
_DOT
 10
377.8333333333335
 20
-22550.0
 30
0.0
 41
5.9996337890625
 42
5.9996337890625
 43
5.9996337890625
 50
270.0
  0
MTEXT
  5
1BE0
330
B2
100
AcDbEntity
  8
__
 62
     0
100
AcDbMText
 10
366.2132523148153
 20
-22519.80631553475
 30
0.0
 40
21.24016203703704
 41
0.0
 71
     5
 72
     1
  1
\A1;20
  7
YUGOTHIC_MEDIUM
 11
0.0
 21
1.0
 31
0.0
  0
POINT
  5
1BE1
330
B2
100
AcDbEntity
  8
DEFPOINTS
 62
     0
100
AcDbPoint
 10
300.0000000000002
 20
-22570.0
 30
0.0
  0
POINT
  5
308C
330
B2
100
AcDbEntity
  8
DEFPOINTS
 62
     0
100
AcDbPoint
 10
300.0000000000002
 20
-22550.0
 30
0.0
  0
POINT
  5
308D
330
B2
100
AcDbEntity
  8
DEFPOINTS
 62
     0
100
AcDbPoint
 10
377.8333333333335
 20
-22550.0
 30
0.0
  0
ENDBLK
  5
B4
330
B2
100
AcDbEntity
  8
0
100
AcDbBlockEnd
  0
BLOCK
  5
B6
330
B5
100
AcDbEntity
  8
0
100
AcDbBlockBegin
  2
*D29
 70
     1
 10
0.0
 20
0.0
 30
0.0
  3
*D29
  1

  0
LINE
  5
1BE2
330
B5
100
AcDbEntity
  8
__
 62
     0
100
AcDbLine
 10
320.0000000000002
 20
-22850.0
 30
0.0
 11
400.0000000000002
 21
-22850.0
 31
0.0
  0
LINE
  5
1BE3
330
B5
100
AcDbEntity
  8
__
 62
     0
100
AcDbLine
 10
320.0000000000002
 20
-22570.0
 30
0.0
 11
400.0000000000002
 21
-22570.0
 31
0.0
  0
LINE
  5
1BE4
330
B5
100
AcDbEntity
  8
__
 62
     0
100
AcDbLine
 10
400.0000000000002
 20
-22844.00036621094
 30
0.0
 11
400.0000000000002
 21
-22575.99963378906
 31
0.0
  0
INSERT
  5
1BE5
330
B5
100
AcDbEntity
  8
__
 62
     0
100
AcDbBlockReference
  2
_DOT
 10
400.0000000000002
 20
-22850.0
 30
0.0
 41
5.9996337890625
 42
5.9996337890625
 43
5.9996337890625
 50
270.0
  0
INSERT
  5
1C68
330
B5
100
AcDbEntity
  8
__
 62
     0
100
AcDbBlockReference
  2
_DOT
 10
400.0000000000002
 20
-22570.0
 30
0.0
 41
5.9996337890625
 42
5.9996337890625
 43
5.9996337890625
 50
90.0
  0
MTEXT
  5
1CEB
330
B5
100
AcDbEntity
  8
__
 62
     0
100
AcDbMText
 10
388.379918981482
 20
-22710.0
 30
0.0
 40
21.24016203703704
 41
0.0
 71
     5
 72
     1
  1
\A1;280
  7
YUGOTHIC_MEDIUM
 11
0.0
 21
1.0
 31
0.0
  0
POINT
  5
1CEC
330
B5
100
AcDbEntity
  8
DEFPOINTS
 62
     0
100
AcDbPoint
 10
300.0000000000002
 20
-22850.0
 30
0.0
  0
POINT
  5
1CED
330
B5
100
AcDbEntity
  8
DEFPOINTS
 62
     0
100
AcDbPoint
 10
300.0000000000002
 20
-22570.0
 30
0.0
  0
POINT
  5
1CEE
330
B5
100
AcDbEntity
  8
DEFPOINTS
 62
     0
100
AcDbPoint
 10
400.0000000000002
 20
-22570.0
 30
0.0
  0
ENDBLK
  5
B7
330
B5
100
AcDbEntity
  8
0
100
AcDbBlockEnd
  0
BLOCK
  5
B9
330
B8
100
AcDbEntity
  8
0
100
AcDbBlockBegin
  2
*D30
 70
     1
 10
0.0
 20
0.0
 30
0.0
  3
*D30
  1

  0
LINE
  5
1CEF
330
B8
100
AcDbEntity
  8
__
 62
     0
100
AcDbLine
 10
1080.0
 20
-23570.0
 30
0.0
 11
977.8333333333336
 21
-23570.0
 31
0.0
  0
LINE
  5
1CF0
330
B8
100
AcDbEntity
  8
__
 62
     0
100
AcDbLine
 10
1080.0
 20
-23550.0
 30
0.0
 11
977.8333333333336
 21
-23550.0
 31
0.0
  0
LINE
  5
1CF1
330
B8
100
AcDbEntity
  8
__
 62
     0
100
AcDbLine
 10
977.8333333333336
 20
-23550.0
 30
0.0
 11
977.8333333333336
 21
-23501.61189864762
 31
0.0
  0
LINE
  5
1CF2
330
B8
100
AcDbEntity
  8
__
 62
     0
100
AcDbLine
 10
977.8333333333336
 20
-23570.0
 30
0.0
 11
977.8333333333336
 21
-23550.0
 31
0.0
  0
LINE
  5
1CF3
330
B8
100
AcDbEntity
  8
__
 62
     0
100
AcDbLine
 10
977.8333333333336
 20
-23575.99963378906
 30
0.0
 11
977.8333333333336
 21
-23581.99926757813
 31
0.0
  0
LINE
  5
1D76
330
B8
100
AcDbEntity
  8
__
 62
     0
100
AcDbLine
 10
977.8333333333336
 20
-23544.00036621094
 30
0.0
 11
977.8333333333336
 21
-23538.00073242188
 31
0.0
  0
INSERT
  5
1DF9
330
B8
100
AcDbEntity
  8
__
 62
     0
100
AcDbBlockReference
  2
_DOT
 10
977.8333333333336
 20
-23570.0
 30
0.0
 41
5.9996337890625
 42
5.9996337890625
 43
5.9996337890625
 50
90.0
  0
INSERT
  5
1DFA
330
B8
100
AcDbEntity
  8
__
 62
     0
100
AcDbBlockReference
  2
_DOT
 10
977.8333333333336
 20
-23550.0
 30
0.0
 41
5.9996337890625
 42
5.9996337890625
 43
5.9996337890625
 50
270.0
  0
MTEXT
  5
1DFB
330
B8
100
AcDbEntity
  8
__
 62
     0
100
AcDbMText
 10
966.2132523148153
 20
-23519.80631553475
 30
0.0
 40
21.24016203703704
 41
0.0
 71
     5
 72
     1
  1
\A1;20
  7
YUGOTHIC_MEDIUM
 11
0.0
 21
1.0
 31
0.0
  0
POINT
  5
1DFC
330
B8
100
AcDbEntity
  8
DEFPOINTS
 62
     0
100
AcDbPoint
 10
1100.0
 20
-23570.0
 30
0.0
  0
POINT
  5
3094
330
B8
100
AcDbEntity
  8
DEFPOINTS
 62
     0
100
AcDbPoint
 10
1100.0
 20
-23550.0
 30
0.0
  0
POINT
  5
3095
330
B8
100
AcDbEntity
  8
DEFPOINTS
 62
     0
100
AcDbPoint
 10
977.8333333333336
 20
-23550.0
 30
0.0
  0
ENDBLK
  5
BA
330
B8
100
AcDbEntity
  8
0
100
AcDbBlockEnd
  0
BLOCK
  5
BC
330
BB
100
AcDbEntity
  8
0
100
AcDbBlockBegin
  2
*D31
 70
     1
 10
0.0
 20
0.0
 30
0.0
  3
*D31
  1

  0
LINE
  5
1DFD
330
BB
100
AcDbEntity
  8
__
 62
     0
100
AcDbLine
 10
1080.0
 20
-23830.0
 30
0.0
 11
1000.0
 21
-23830.0
 31
0.0
  0
LINE
  5
1DFE
330
BB
100
AcDbEntity
  8
__
 62
     0
100
AcDbLine
 10
1080.0
 20
-23570.0
 30
0.0
 11
1000.0
 21
-23570.0
 31
0.0
  0
LINE
  5
1DFF
330
BB
100
AcDbEntity
  8
__
 62
     0
100
AcDbLine
 10
1000.0
 20
-23824.00036621094
 30
0.0
 11
1000.0
 21
-23575.99963378906
 31
0.0
  0
INSERT
  5
1E00
330
BB
100
AcDbEntity
  8
__
 62
     0
100
AcDbBlockReference
  2
_DOT
 10
1000.0
 20
-23830.0
 30
0.0
 41
5.9996337890625
 42
5.9996337890625
 43
5.9996337890625
 50
270.0
  0
INSERT
  5
1E83
330
BB
100
AcDbEntity
  8
__
 62
     0
100
AcDbBlockReference
  2
_DOT
 10
1000.0
 20
-23570.0
 30
0.0
 41
5.9996337890625
 42
5.9996337890625
 43
5.9996337890625
 50
90.0
  0
MTEXT
  5
1F06
330
BB
100
AcDbEntity
  8
__
 62
     0
100
AcDbMText
 10
988.379918981482
 20
-23700.0
 30
0.0
 40
21.24016203703704
 41
0.0
 71
     5
 72
     1
  1
\A1;260
  7
YUGOTHIC_MEDIUM
 11
0.0
 21
1.0
 31
0.0
  0
POINT
  5
1F07
330
BB
100
AcDbEntity
  8
DEFPOINTS
 62
     0
100
AcDbPoint
 10
1100.0
 20
-23830.0
 30
0.0
  0
POINT
  5
1F08
330
BB
100
AcDbEntity
  8
DEFPOINTS
 62
     0
100
AcDbPoint
 10
1100.0
 20
-23570.0
 30
0.0
  0
POINT
  5
1F09
330
BB
100
AcDbEntity
  8
DEFPOINTS
 62
     0
100
AcDbPoint
 10
1000.0
 20
-23570.0
 30
0.0
  0
ENDBLK
  5
BD
330
BB
100
AcDbEntity
  8
0
100
AcDbBlockEnd
  0
BLOCK
  5
BF
330
BE
100
AcDbEntity
  8
0
100
AcDbBlockBegin
  2
*D32
 70
     1
 10
0.0
 20
0.0
 30
0.0
  3
*D32
  1

  0
LINE
  5
1F0A
330
BE
100
AcDbEntity
  8
__
 62
     0
100
AcDbLine
 10
1080.0
 20
-23850.0
 30
0.0
 11
977.8333333333336
 21
-23850.0
 31
0.0
  0
LINE
  5
1F0B
330
BE
100
AcDbEntity
  8
__
 62
     0
100
AcDbLine
 10
1080.0
 20
-23830.0
 30
0.0
 11
977.8333333333336
 21
-23830.0
 31
0.0
  0
LINE
  5
1F0C
330
BE
100
AcDbEntity
  8
__
 62
     0
100
AcDbLine
 10
977.8333333333336
 20
-23850.0
 30
0.0
 11
977.8333333333336
 21
-23898.38810135238
 31
0.0
  0
LINE
  5
1F0D
330
BE
100
AcDbEntity
  8
__
 62
     0
100
AcDbLine
 10
977.8333333333336
 20
-23850.0
 30
0.0
 11
977.8333333333336
 21
-23830.0
 31
0.0
  0
LINE
  5
1F0E
330
BE
100
AcDbEntity
  8
__
 62
     0
100
AcDbLine
 10
977.8333333333336
 20
-23855.99963378906
 30
0.0
 11
977.8333333333336
 21
-23861.99926757813
 31
0.0
  0
LINE
  5
1F91
330
BE
100
AcDbEntity
  8
__
 62
     0
100
AcDbLine
 10
977.8333333333336
 20
-23824.00036621094
 30
0.0
 11
977.8333333333336
 21
-23818.00073242188
 31
0.0
  0
INSERT
  5
2014
330
BE
100
AcDbEntity
  8
__
 62
     0
100
AcDbBlockReference
  2
_DOT
 10
977.8333333333336
 20
-23850.0
 30
0.0
 41
5.9996337890625
 42
5.9996337890625
 43
5.9996337890625
 50
90.0
  0
INSERT
  5
2015
330
BE
100
AcDbEntity
  8
__
 62
     0
100
AcDbBlockReference
  2
_DOT
 10
977.8333333333336
 20
-23830.0
 30
0.0
 41
5.9996337890625
 42
5.9996337890625
 43
5.9996337890625
 50
270.0
  0
MTEXT
  5
2016
330
BE
100
AcDbEntity
  8
__
 62
     0
100
AcDbMText
 10
966.2132523148153
 20
-23880.19368446525
 30
0.0
 40
21.24016203703704
 41
0.0
 71
     5
 72
     1
  1
\A1;20
  7
YUGOTHIC_MEDIUM
 11
0.0
 21
1.0
 31
0.0
  0
POINT
  5
2017
330
BE
100
AcDbEntity
  8
DEFPOINTS
 62
     0
100
AcDbPoint
 10
1100.0
 20
-23850.0
 30
0.0
  0
POINT
  5
3098
330
BE
100
AcDbEntity
  8
DEFPOINTS
 62
     0
100
AcDbPoint
 10
1100.0
 20
-23830.0
 30
0.0
  0
POINT
  5
3099
330
BE
100
AcDbEntity
  8
DEFPOINTS
 62
     0
100
AcDbPoint
 10
977.8333333333336
 20
-23830.0
 30
0.0
  0
ENDBLK
  5
C0
330
BE
100
AcDbEntity
  8
0
100
AcDbBlockEnd
  0
BLOCK
  5
C2
330
C1
100
AcDbEntity
  8
0
100
AcDbBlockBegin
  2
*D33
 70
     1
 10
0.0
 20
0.0
 30
0.0
  3
*D33
  1

  0
LINE
  5
2018
330
C1
100
AcDbEntity
  8
__
 62
     0
100
AcDbLine
 10
1420.0
 20
-23850.0
 30
0.0
 11
1500.0
 21
-23850.0
 31
0.0
  0
LINE
  5
2019
330
C1
100
AcDbEntity
  8
__
 62
     0
100
AcDbLine
 10
1420.0
 20
-23550.0
 30
0.0
 11
1500.0
 21
-23550.0
 31
0.0
  0
LINE
  5
201A
330
C1
100
AcDbEntity
  8
__
 62
     0
100
AcDbLine
 10
1500.0
 20
-23844.00036621094
 30
0.0
 11
1500.0
 21
-23555.99963378906
 31
0.0
  0
INSERT
  5
201B
330
C1
100
AcDbEntity
  8
__
 62
     0
100
AcDbBlockReference
  2
_DOT
 10
1500.0
 20
-23850.0
 30
0.0
 41
5.9996337890625
 42
5.9996337890625
 43
5.9996337890625
 50
270.0
  0
INSERT
  5
209E
330
C1
100
AcDbEntity
  8
__
 62
     0
100
AcDbBlockReference
  2
_DOT
 10
1500.0
 20
-23550.0
 30
0.0
 41
5.9996337890625
 42
5.9996337890625
 43
5.9996337890625
 50
90.0
  0
MTEXT
  5
2121
330
C1
100
AcDbEntity
  8
__
 62
     0
100
AcDbMText
 10
1488.379918981482
 20
-23700.0
 30
0.0
 40
21.24016203703704
 41
0.0
 71
     5
 72
     1
  1
\A1;300
  7
YUGOTHIC_MEDIUM
 11
0.0
 21
1.0
 31
0.0
  0
POINT
  5
2122
330
C1
100
AcDbEntity
  8
DEFPOINTS
 62
     0
100
AcDbPoint
 10
1400.0
 20
-23850.0
 30
0.0
  0
POINT
  5
2123
330
C1
100
AcDbEntity
  8
DEFPOINTS
 62
     0
100
AcDbPoint
 10
1400.0
 20
-23550.0
 30
0.0
  0
POINT
  5
2124
330
C1
100
AcDbEntity
  8
DEFPOINTS
 62
     0
100
AcDbPoint
 10
1500.0
 20
-23550.0
 30
0.0
  0
ENDBLK
  5
C3
330
C1
100
AcDbEntity
  8
0
100
AcDbBlockEnd
  0
BLOCK
  5
C5
330
C4
100
AcDbEntity
  8
0
100
AcDbBlockBegin
  2
*D34
 70
     1
 10
0.0
 20
0.0
 30
0.0
  3
*D34
  1

  0
LINE
  5
2125
330
C4
100
AcDbEntity
  8
__
 62
     0
100
AcDbLine
 10
1380.0
 20
-23530.0
 30
0.0
 11
1380.0
 21
-23450.0
 31
0.0
  0
LINE
  5
2126
330
C4
100
AcDbEntity
  8
__
 62
     0
100
AcDbLine
 10
1100.0
 20
-23530.0
 30
0.0
 11
1100.0
 21
-23450.0
 31
0.0
  0
LINE
  5
2127
330
C4
100
AcDbEntity
  8
__
 62
     0
100
AcDbLine
 10
1374.000366210938
 20
-23450.0
 30
0.0
 11
1105.999633789063
 21
-23450.0
 31
0.0
  0
INSERT
  5
2128
330
C4
100
AcDbEntity
  8
__
 62
     0
100
AcDbBlockReference
  2
_DOT
 10
1380.0
 20
-23450.0
 30
0.0
 41
5.9996337890625
 42
5.9996337890625
 43
5.9996337890625
  0
INSERT
  5
21AB
330
C4
100
AcDbEntity
  8
__
 62
     0
100
AcDbBlockReference
  2
_DOT
 10
1100.0
 20
-23450.0
 30
0.0
 41
5.9996337890625
 42
5.9996337890625
 43
5.9996337890625
 50
180.0
  0
MTEXT
  5
222E
330
C4
100
AcDbEntity
  8
__
 62
     0
100
AcDbMText
 10
1240.0
 20
-23438.37991898148
 30
0.0
 40
21.24016203703704
 41
0.0
 71
     5
 72
     1
  1
\A1;280
  7
YUGOTHIC_MEDIUM
  0
POINT
  5
222F
330
C4
100
AcDbEntity
  8
DEFPOINTS
 62
     0
100
AcDbPoint
 10
1380.0
 20
-23550.0
 30
0.0
  0
POINT
  5
2230
330
C4
100
AcDbEntity
  8
DEFPOINTS
 62
     0
100
AcDbPoint
 10
1100.0
 20
-23550.0
 30
0.0
  0
POINT
  5
2231
330
C4
100
AcDbEntity
  8
DEFPOINTS
 62
     0
100
AcDbPoint
 10
1100.0
 20
-23450.0
 30
0.0
  0
ENDBLK
  5
C6
330
C4
100
AcDbEntity
  8
0
100
AcDbBlockEnd
  0
BLOCK
  5
C8
330
C7
100
AcDbEntity
  8
0
100
AcDbBlockBegin
  2
*D35
 70
     1
 10
0.0
 20
0.0
 30
0.0
  3
*D35
  1

  0
LINE
  5
2232
330
C7
100
AcDbEntity
  8
__
 62
     0
100
AcDbLine
 10
1400.0
 20
-23530.0
 30
0.0
 11
1400.0
 21
-23427.83333333333
 31
0.0
  0
LINE
  5
2233
330
C7
100
AcDbEntity
  8
__
 62
     0
100
AcDbLine
 10
1380.0
 20
-23530.0
 30
0.0
 11
1380.0
 21
-23427.83333333333
 31
0.0
  0
LINE
  5
2234
330
C7
100
AcDbEntity
  8
__
 62
     0
100
AcDbLine
 10
1400.0
 20
-23427.83333333333
 30
0.0
 11
1448.388101352376
 21
-23427.83333333333
 31
0.0
  0
LINE
  5
2235
330
C7
100
AcDbEntity
  8
__
 62
     0
100
AcDbLine
 10
1400.0
 20
-23427.83333333333
 30
0.0
 11
1380.0
 21
-23427.83333333333
 31
0.0
  0
LINE
  5
2236
330
C7
100
AcDbEntity
  8
__
 62
     0
100
AcDbLine
 10
1405.999633789063
 20
-23427.83333333333
 30
0.0
 11
1411.999267578125
 21
-23427.83333333333
 31
0.0
  0
LINE
  5
22B9
330
C7
100
AcDbEntity
  8
__
 62
     0
100
AcDbLine
 10
1374.000366210938
 20
-23427.83333333333
 30
0.0
 11
1368.000732421875
 21
-23427.83333333333
 31
0.0
  0
INSERT
  5
233C
330
C7
100
AcDbEntity
  8
__
 62
     0
100
AcDbBlockReference
  2
_DOT
 10
1400.0
 20
-23427.83333333333
 30
0.0
 41
5.9996337890625
 42
5.9996337890625
 43
5.9996337890625
 50
180.0
  0
INSERT
  5
233D
330
C7
100
AcDbEntity
  8
__
 62
     0
100
AcDbBlockReference
  2
_DOT
 10
1380.0
 20
-23427.83333333333
 30
0.0
 41
5.9996337890625
 42
5.9996337890625
 43
5.9996337890625
  0
MTEXT
  5
233E
330
C7
100
AcDbEntity
  8
__
 62
     0
100
AcDbMText
 10
1430.193684465251
 20
-23416.21325231482
 30
0.0
 40
21.24016203703704
 41
0.0
 71
     5
 72
     1
  1
\A1;20
  7
YUGOTHIC_MEDIUM
  0
POINT
  5
233F
330
C7
100
AcDbEntity
  8
DEFPOINTS
 62
     0
100
AcDbPoint
 10
1400.0
 20
-23550.0
 30
0.0
  0
POINT
  5
309D
330
C7
100
AcDbEntity
  8
DEFPOINTS
 62
     0
100
AcDbPoint
 10
1380.0
 20
-23550.0
 30
0.0
  0
POINT
  5
309E
330
C7
100
AcDbEntity
  8
DEFPOINTS
 62
     0
100
AcDbPoint
 10
1380.0
 20
-23427.83333333333
 30
0.0
  0
ENDBLK
  5
C9
330
C7
100
AcDbEntity
  8
0
100
AcDbBlockEnd
  0
BLOCK
  5
CB
330
CA
100
AcDbEntity
  8
0
100
AcDbBlockBegin
  2
*D36
 70
     1
 10
0.0
 20
0.0
 30
0.0
  3
*D36
  1

  0
LINE
  5
2340
330
CA
100
AcDbEntity
  8
__
 62
     0
100
AcDbLine
 10
1400.0
 20
-23910.0
 30
0.0
 11
1400.0
 21
-24050.0
 31
0.0
  0
LINE
  5
2341
330
CA
100
AcDbEntity
  8
__
 62
     0
100
AcDbLine
 10
1100.0
 20
-23910.0
 30
0.0
 11
1100.0
 21
-24050.0
 31
0.0
  0
LINE
  5
2342
330
CA
100
AcDbEntity
  8
__
 62
     0
100
AcDbLine
 10
1394.000366210938
 20
-24050.0
 30
0.0
 11
1105.999633789063
 21
-24050.0
 31
0.0
  0
INSERT
  5
2343
330
CA
100
AcDbEntity
  8
__
 62
     0
100
AcDbBlockReference
  2
_DOT
 10
1400.0
 20
-24050.0
 30
0.0
 41
5.9996337890625
 42
5.9996337890625
 43
5.9996337890625
  0
INSERT
  5
23C6
330
CA
100
AcDbEntity
  8
__
 62
     0
100
AcDbBlockReference
  2
_DOT
 10
1100.0
 20
-24050.0
 30
0.0
 41
5.9996337890625
 42
5.9996337890625
 43
5.9996337890625
 50
180.0
  0
MTEXT
  5
2449
330
CA
100
AcDbEntity
  8
__
 62
     0
100
AcDbMText
 10
1250.0
 20
-24038.37991898148
 30
0.0
 40
21.24016203703704
 41
0.0
 71
     5
 72
     1
  1
\A1;300
  7
YUGOTHIC_MEDIUM
  0
POINT
  5
244A
330
CA
100
AcDbEntity
  8
DEFPOINTS
 62
     0
100
AcDbPoint
 10
1400.0
 20
-23890.0
 30
0.0
  0
POINT
  5
244B
330
CA
100
AcDbEntity
  8
DEFPOINTS
 62
     0
100
AcDbPoint
 10
1100.0
 20
-23890.0
 30
0.0
  0
POINT
  5
244C
330
CA
100
AcDbEntity
  8
DEFPOINTS
 62
     0
100
AcDbPoint
 10
1100.0
 20
-24050.0
 30
0.0
  0
ENDBLK
  5
CC
330
CA
100
AcDbEntity
  8
0
100
AcDbBlockEnd
  0
BLOCK
  5
CE
330
CD
100
AcDbEntity
  8
0
100
AcDbBlockBegin
  2
*D37
 70
     1
 10
0.0
 20
0.0
 30
0.0
  3
*D37
  1

  0
LINE
  5
244D
330
CD
100
AcDbEntity
  8
__
 62
     0
100
AcDbLine
 10
1340.0
 20
-23910.0
 30
0.0
 11
1340.0
 21
-23990.0
 31
0.0
  0
LINE
  5
244E
330
CD
100
AcDbEntity
  8
__
 62
     0
100
AcDbLine
 10
1100.0
 20
-23910.0
 30
0.0
 11
1100.0
 21
-23990.0
 31
0.0
  0
LINE
  5
244F
330
CD
100
AcDbEntity
  8
__
 62
     0
100
AcDbLine
 10
1334.000366210938
 20
-23990.0
 30
0.0
 11
1105.999633789063
 21
-23990.0
 31
0.0
  0
INSERT
  5
2450
330
CD
100
AcDbEntity
  8
__
 62
     0
100
AcDbBlockReference
  2
_DOT
 10
1340.0
 20
-23990.0
 30
0.0
 41
5.9996337890625
 42
5.9996337890625
 43
5.9996337890625
  0
INSERT
  5
24D3
330
CD
100
AcDbEntity
  8
__
 62
     0
100
AcDbBlockReference
  2
_DOT
 10
1100.0
 20
-23990.0
 30
0.0
 41
5.9996337890625
 42
5.9996337890625
 43
5.9996337890625
 50
180.0
  0
MTEXT
  5
2556
330
CD
100
AcDbEntity
  8
__
 62
     0
100
AcDbMText
 10
1220.0
 20
-23978.37991898148
 30
0.0
 40
21.24016203703704
 41
0.0
 71
     5
 72
     1
  1
\A1;240
  7
YUGOTHIC_MEDIUM
  0
POINT
  5
2557
330
CD
100
AcDbEntity
  8
DEFPOINTS
 62
     0
100
AcDbPoint
 10
1340.0
 20
-23890.0
 30
0.0
  0
POINT
  5
2558
330
CD
100
AcDbEntity
  8
DEFPOINTS
 62
     0
100
AcDbPoint
 10
1100.0
 20
-23890.0
 30
0.0
  0
POINT
  5
2559
330
CD
100
AcDbEntity
  8
DEFPOINTS
 62
     0
100
AcDbPoint
 10
1100.0
 20
-23990.0
 30
0.0
  0
ENDBLK
  5
CF
330
CD
100
AcDbEntity
  8
0
100
AcDbBlockEnd
  0
BLOCK
  5
D1
330
D0
100
AcDbEntity
  8
0
100
AcDbBlockBegin
  2
*D38
 70
     1
 10
0.0
 20
0.0
 30
0.0
  3
*D38
  1

  0
LINE
  5
255A
330
D0
100
AcDbEntity
  8
__
 62
     0
100
AcDbLine
 10
1400.0
 20
-23910.0
 30
0.0
 11
1400.0
 21
-23990.0
 31
0.0
  0
LINE
  5
255B
330
D0
100
AcDbEntity
  8
__
 62
     0
100
AcDbLine
 10
1340.0
 20
-23910.0
 30
0.0
 11
1340.0
 21
-23990.0
 31
0.0
  0
LINE
  5
255C
330
D0
100
AcDbEntity
  8
__
 62
     0
100
AcDbLine
 10
1394.000366210938
 20
-23990.0
 30
0.0
 11
1345.999633789063
 21
-23990.0
 31
0.0
  0
INSERT
  5
255D
330
D0
100
AcDbEntity
  8
__
 62
     0
100
AcDbBlockReference
  2
_DOT
 10
1400.0
 20
-23990.0
 30
0.0
 41
5.9996337890625
 42
5.9996337890625
 43
5.9996337890625
  0
INSERT
  5
25E0
330
D0
100
AcDbEntity
  8
__
 62
     0
100
AcDbBlockReference
  2
_DOT
 10
1340.0
 20
-23990.0
 30
0.0
 41
5.9996337890625
 42
5.9996337890625
 43
5.9996337890625
 50
180.0
  0
MTEXT
  5
2663
330
D0
100
AcDbEntity
  8
__
 62
     0
100
AcDbMText
 10
1370.0
 20
-23978.37991898148
 30
0.0
 40
21.24016203703704
 41
0.0
 71
     5
 72
     1
  1
\A1;60
  7
YUGOTHIC_MEDIUM
  0
POINT
  5
2664
330
D0
100
AcDbEntity
  8
DEFPOINTS
 62
     0
100
AcDbPoint
 10
1400.0
 20
-23890.0
 30
0.0
  0
POINT
  5
2665
330
D0
100
AcDbEntity
  8
DEFPOINTS
 62
     0
100
AcDbPoint
 10
1340.0
 20
-23890.0
 30
0.0
  0
POINT
  5
2666
330
D0
100
AcDbEntity
  8
DEFPOINTS
 62
     0
100
AcDbPoint
 10
1340.0
 20
-23990.0
 30
0.0
  0
ENDBLK
  5
D2
330
D0
100
AcDbEntity
  8
0
100
AcDbBlockEnd
  0
BLOCK
  5
D4
330
D3
100
AcDbEntity
  8
0
100
AcDbBlockBegin
  2
*D39
 70
     1
 10
0.0
 20
0.0
 30
0.0
  3
*D39
  1

  0
LINE
  5
2667
330
D3
100
AcDbEntity
  8
__
 62
     0
100
AcDbLine
 10
-1320.0
 20
-22850.0
 30
0.0
 11
-1400.0
 21
-22850.0
 31
0.0
  0
LINE
  5
2668
330
D3
100
AcDbEntity
  8
__
 62
     0
100
AcDbLine
 10
-1320.0
 20
-22550.0
 30
0.0
 11
-1400.0
 21
-22550.0
 31
0.0
  0
LINE
  5
2669
330
D3
100
AcDbEntity
  8
__
 62
     0
100
AcDbLine
 10
-1400.0
 20
-22844.00036621094
 30
0.0
 11
-1400.0
 21
-22555.99963378906
 31
0.0
  0
INSERT
  5
266A
330
D3
100
AcDbEntity
  8
__
 62
     0
100
AcDbBlockReference
  2
_DOT
 10
-1400.0
 20
-22850.0
 30
0.0
 41
5.9996337890625
 42
5.9996337890625
 43
5.9996337890625
 50
270.0
  0
INSERT
  5
26ED
330
D3
100
AcDbEntity
  8
__
 62
     0
100
AcDbBlockReference
  2
_DOT
 10
-1400.0
 20
-22550.0
 30
0.0
 41
5.9996337890625
 42
5.9996337890625
 43
5.9996337890625
 50
90.0
  0
MTEXT
  5
2770
330
D3
100
AcDbEntity
  8
__
 62
     0
100
AcDbMText
 10
-1411.620081018518
 20
-22700.0
 30
0.0
 40
21.24016203703704
 41
0.0
 71
     5
 72
     1
  1
\A1;300
  7
YUGOTHIC_MEDIUM
 11
0.0
 21
1.0
 31
0.0
  0
POINT
  5
2771
330
D3
100
AcDbEntity
  8
DEFPOINTS
 62
     0
100
AcDbPoint
 10
-1300.0
 20
-22850.0
 30
0.0
  0
POINT
  5
2772
330
D3
100
AcDbEntity
  8
DEFPOINTS
 62
     0
100
AcDbPoint
 10
-1300.0
 20
-22550.0
 30
0.0
  0
POINT
  5
2773
330
D3
100
AcDbEntity
  8
DEFPOINTS
 62
     0
100
AcDbPoint
 10
-1400.0
 20
-22550.0
 30
0.0
  0
ENDBLK
  5
D5
330
D3
100
AcDbEntity
  8
0
100
AcDbBlockEnd
  0
BLOCK
  5
D7
330
D6
100
AcDbEntity
  8
0
100
AcDbBlockBegin
  2
*D40
 70
     1
 10
0.0
 20
0.0
 30
0.0
  3
*D40
  1

  0
LINE
  5
2774
330
D6
100
AcDbEntity
  8
__
 62
     0
100
AcDbLine
 10
300.0000000000002
 20
-22870.0
 30
0.0
 11
300.0000000000002
 21
-22950.0
 31
0.0
  0
LINE
  5
2775
330
D6
100
AcDbEntity
  8
__
 62
     0
100
AcDbLine
 10
-1300.0
 20
-22870.0
 30
0.0
 11
-1300.0
 21
-22950.0
 31
0.0
  0
LINE
  5
2776
330
D6
100
AcDbEntity
  8
__
 62
     0
100
AcDbLine
 10
294.0003662109377
 20
-22950.0
 30
0.0
 11
-1294.000366210938
 21
-22950.0
 31
0.0
  0
INSERT
  5
2777
330
D6
100
AcDbEntity
  8
__
 62
     0
100
AcDbBlockReference
  2
_DOT
 10
300.0000000000002
 20
-22950.0
 30
0.0
 41
5.9996337890625
 42
5.9996337890625
 43
5.9996337890625
  0
INSERT
  5
27FA
330
D6
100
AcDbEntity
  8
__
 62
     0
100
AcDbBlockReference
  2
_DOT
 10
-1300.0
 20
-22950.0
 30
0.0
 41
5.9996337890625
 42
5.9996337890625
 43
5.9996337890625
 50
180.0
  0
MTEXT
  5
287D
330
D6
100
AcDbEntity
  8
__
 62
     0
100
AcDbMText
 10
-499.9999999999999
 20
-22938.37991898148
 30
0.0
 40
21.24016203703704
 41
0.0
 71
     5
 72
     1
  1
\A1;1600
  7
YUGOTHIC_MEDIUM
  0
POINT
  5
287E
330
D6
100
AcDbEntity
  8
DEFPOINTS
 62
     0
100
AcDbPoint
 10
300.0000000000002
 20
-22850.0
 30
0.0
  0
POINT
  5
287F
330
D6
100
AcDbEntity
  8
DEFPOINTS
 62
     0
100
AcDbPoint
 10
-1300.0
 20
-22850.0
 30
0.0
  0
POINT
  5
2880
330
D6
100
AcDbEntity
  8
DEFPOINTS
 62
     0
100
AcDbPoint
 10
-1300.0
 20
-22950.0
 30
0.0
  0
ENDBLK
  5
D8
330
D6
100
AcDbEntity
  8
0
100
AcDbBlockEnd
  0
BLOCK
  5
DA
330
D9
100
AcDbEntity
  8
0
100
AcDbBlockBegin
  2
*D41
 70
     1
 10
0.0
 20
0.0
 30
0.0
  3
*D41
  1

  0
LINE
  5
2881
330
D9
100
AcDbEntity
  8
__
 62
     0
100
AcDbLine
 10
170.0000000000002
 20
-23910.0
 30
0.0
 11
170.0000000000002
 21
-23990.0
 31
0.0
  0
LINE
  5
2882
330
D9
100
AcDbEntity
  8
__
 62
     0
100
AcDbLine
 10
-499.9999999999998
 20
-23910.0
 30
0.0
 11
-499.9999999999998
 21
-23990.0
 31
0.0
  0
LINE
  5
2883
330
D9
100
AcDbEntity
  8
__
 62
     0
100
AcDbLine
 10
164.0003662109377
 20
-23990.0
 30
0.0
 11
-494.0003662109373
 21
-23990.0
 31
0.0
  0
INSERT
  5
2884
330
D9
100
AcDbEntity
  8
__
 62
     0
100
AcDbBlockReference
  2
_DOT
 10
170.0000000000002
 20
-23990.0
 30
0.0
 41
5.9996337890625
 42
5.9996337890625
 43
5.9996337890625
  0
INSERT
  5
2907
330
D9
100
AcDbEntity
  8
__
 62
     0
100
AcDbBlockReference
  2
_DOT
 10
-499.9999999999998
 20
-23990.0
 30
0.0
 41
5.9996337890625
 42
5.9996337890625
 43
5.9996337890625
 50
180.0
  0
MTEXT
  5
298A
330
D9
100
AcDbEntity
  8
__
 62
     0
100
AcDbMText
 10
-164.9999999999998
 20
-23978.37991898148
 30
0.0
 40
21.24016203703704
 41
0.0
 71
     5
 72
     1
  1
\A1;670
  7
YUGOTHIC_MEDIUM
  0
POINT
  5
298B
330
D9
100
AcDbEntity
  8
DEFPOINTS
 62
     0
100
AcDbPoint
 10
170.0000000000002
 20
-23890.0
 30
0.0
  0
POINT
  5
298C
330
D9
100
AcDbEntity
  8
DEFPOINTS
 62
     0
100
AcDbPoint
 10
-499.9999999999998
 20
-23890.0
 30
0.0
  0
POINT
  5
298D
330
D9
100
AcDbEntity
  8
DEFPOINTS
 62
     0
100
AcDbPoint
 10
-499.9999999999998
 20
-23990.0
 30
0.0
  0
ENDBLK
  5
DB
330
D9
100
AcDbEntity
  8
0
100
AcDbBlockEnd
  0
BLOCK
  5
DD
330
DC
100
AcDbEntity
  8
0
100
AcDbBlockBegin
  2
____-3
 70
     0
 10
0.0
 20
0.0
 30
0.0
  3
____-3
  1

  0
CIRCLE
  5
298E
330
DC
100
AcDbEntity
  8
_-0_18
  6
______-11
 62
     1
100
AcDbCircle
 10
-1170.0
 20
-22610.0
 30
0.0
 40
2.5
  0
CIRCLE
  5
298F
330
DC
100
AcDbEntity
  8
_-0_18
  6
______-11
 62
     1
100
AcDbCircle
 10
-1170.0
 20
-22610.0
 30
0.0
 40
5.0
  0
LINE
  5
2990
330
DC
100
AcDbEntity
  8
_-0_18
  6
______-11
 62
     1
100
AcDbLine
 10
-1180.0
 20
-22610.0
 30
0.0
 11
-1160.0
 21
-22610.0
 31
0.0
  0
LINE
  5
2991
330
DC
100
AcDbEntity
  8
_-0_18
  6
______-11
 62
     1
100
AcDbLine
 10
-1170.0
 20
-22600.0
 30
0.0
 11
-1170.0
 21
-22620.0
 31
0.0
  0
ENDBLK
  5
DE
330
DC
100
AcDbEntity
  8
0
100
AcDbBlockEnd
  0
BLOCK
  5
E0
330
DF
100
AcDbEntity
  8
0
100
AcDbBlockBegin
  2
____-4
 70
     0
 10
0.0
 20
0.0
 30
0.0
  3
____-4
  1

  0
CIRCLE
  5
2992
330
DF
100
AcDbEntity
  8
_-0_18
  6
______-11
 62
     1
100
AcDbCircle
 10
-499.9999999999998
 20
-22610.0
 30
0.0
 40
2.5
  0
CIRCLE
  5
2993
330
DF
100
AcDbEntity
  8
_-0_18
  6
______-11
 62
     1
100
AcDbCircle
 10
-499.9999999999998
 20
-22610.0
 30
0.0
 40
5.0
  0
LINE
  5
2994
330
DF
100
AcDbEntity
  8
_-0_18
  6
______-11
 62
     1
100
AcDbLine
 10
-509.9999999999998
 20
-22610.0
 30
0.0
 11
-489.9999999999998
 21
-22610.0
 31
0.0
  0
LINE
  5
2995
330
DF
100
AcDbEntity
  8
_-0_18
  6
______-11
 62
     1
100
AcDbLine
 10
-499.9999999999998
 20
-22600.0
 30
0.0
 11
-499.9999999999998
 21
-22620.0
 31
0.0
  0
ENDBLK
  5
E1
330
DF
100
AcDbEntity
  8
0
100
AcDbBlockEnd
  0
BLOCK
  5
E3
330
E2
100
AcDbEntity
  8
0
100
AcDbBlockBegin
  2
____-5
 70
     0
 10
0.0
 20
0.0
 30
0.0
  3
____-5
  1

  0
CIRCLE
  5
2996
330
E2
100
AcDbEntity
  8
_-0_18
  6
______-11
 62
     1
100
AcDbCircle
 10
170.0000000000002
 20
-22610.0
 30
0.0
 40
2.5
  0
CIRCLE
  5
2997
330
E2
100
AcDbEntity
  8
_-0_18
  6
______-11
 62
     1
100
AcDbCircle
 10
170.0000000000002
 20
-22610.0
 30
0.0
 40
5.0
  0
LINE
  5
2998
330
E2
100
AcDbEntity
  8
_-0_18
  6
______-11
 62
     1
100
AcDbLine
 10
160.0000000000002
 20
-22610.0
 30
0.0
 11
180.0000000000002
 21
-22610.0
 31
0.0
  0
LINE
  5
2999
330
E2
100
AcDbEntity
  8
_-0_18
  6
______-11
 62
     1
100
AcDbLine
 10
170.0000000000002
 20
-22600.0
 30
0.0
 11
170.0000000000002
 21
-22620.0
 31
0.0
  0
ENDBLK
  5
E4
330
E2
100
AcDbEntity
  8
0
100
AcDbBlockEnd
  0
BLOCK
  5
E6
330
E5
100
AcDbEntity
  8
0
100
AcDbBlockBegin
  2
*D45
 70
     1
 10
0.0
 20
0.0
 30
0.0
  3
*D45
  1

  0
LINE
  5
299A
330
E5
100
AcDbEntity
  8
__
 62
     0
100
AcDbLine
 10
-733.0317681559856
 20
-23890.0
 30
0.0
 11
-680.9719375145462
 21
-23890.0
 31
0.0
  0
LINE
  5
299B
330
E5
100
AcDbEntity
  8
__
 62
     0
100
AcDbLine
 10
-731.8770676176064
 20
-23882.0
 30
0.0
 11
-680.9719375145462
 21
-23882.0
 31
0.0
  0
LINE
  5
299C
330
E5
100
AcDbEntity
  8
__
 62
     0
100
AcDbLine
 10
-680.9719375145462
 20
-23890.0
 30
0.0
 11
-680.9719375145462
 21
-23949.14599397503
 31
0.0
  0
LINE
  5
299D
330
E5
100
AcDbEntity
  8
__
 62
     0
100
AcDbLine
 10
-680.9719375145462
 20
-23890.0
 30
0.0
 11
-680.9719375145462
 21
-23882.0
 31
0.0
  0
LINE
  5
299E
330
E5
100
AcDbEntity
  8
__
 62
     0
100
AcDbLine
 10
-680.9719375145462
 20
-23895.99963378906
 30
0.0
 11
-680.9719375145462
 21
-23901.99926757813
 31
0.0
  0
LINE
  5
2A21
330
E5
100
AcDbEntity
  8
__
 62
     0
100
AcDbLine
 10
-680.9719375145462
 20
-23876.00036621094
 30
0.0
 11
-680.9719375145462
 21
-23870.00073242188
 31
0.0
  0
INSERT
  5
2AA4
330
E5
100
AcDbEntity
  8
__
 62
     0
100
AcDbBlockReference
  2
_DOT
 10
-680.9719375145462
 20
-23890.0
 30
0.0
 41
5.9996337890625
 42
5.9996337890625
 43
5.9996337890625
 50
90.0
  0
INSERT
  5
2AA5
330
E5
100
AcDbEntity
  8
__
 62
     0
100
AcDbBlockReference
  2
_DOT
 10
-680.9719375145462
 20
-23882.0
 30
0.0
 41
5.9996337890625
 42
5.9996337890625
 43
5.9996337890625
 50
270.0
  0
MTEXT
  5
2AA6
330
E5
100
AcDbEntity
  8
__
 62
     0
100
AcDbMText
 10
-695.5404312032798
 20
-23930.44999851969
 30
0.0
 40
21.24016203703704
 41
0.0
 71
     5
 72
     1
  1
\A1;\U+03C68
  7
YUGOTHIC_MEDIUM
 11
0.0
 21
1.0
 31
0.0
  0
POINT
  5
2AA7
330
E5
100
AcDbEntity
  8
DEFPOINTS
 62
     0
100
AcDbPoint
 10
-753.0317681559856
 20
-23890.0
 30
0.0
  0
POINT
  5
30B3
330
E5
100
AcDbEntity
  8
DEFPOINTS
 62
     0
100
AcDbPoint
 10
-751.8770676176064
 20
-23882.0
 30
0.0
  0
POINT
  5
30B4
330
E5
100
AcDbEntity
  8
DEFPOINTS
 62
     0
100
AcDbPoint
 10
-680.9719375145462
 20
-23882.0
 30
0.0
  0
ENDBLK
  5
E7
330
E5
100
AcDbEntity
  8
0
100
AcDbBlockEnd
  0
BLOCK
  5
E9
330
E8
100
AcDbEntity
  8
0
100
AcDbBlockBegin
  2
*D46
 70
     1
 10
0.0
 20
0.0
 30
0.0
  3
*D46
  1

  0
LINE
  5
2AA8
330
E8
100
AcDbEntity
  8
__
 62
     0
100
AcDbLine
 10
-1320.0
 20
-23850.0
 30
0.0
 11
-1400.0
 21
-23850.0
 31
0.0
  0
LINE
  5
2AA9
330
E8
100
AcDbEntity
  8
__
 62
     0
100
AcDbLine
 10
-1195.0
 20
-23890.0
 30
0.0
 11
-1400.0
 21
-23890.0
 31
0.0
  0
LINE
  5
2AAA
330
E8
100
AcDbEntity
  8
__
 62
     0
100
AcDbLine
 10
-1400.0
 20
-23855.99963378906
 30
0.0
 11
-1400.0
 21
-23884.00036621094
 31
0.0
  0
INSERT
  5
2AAB
330
E8
100
AcDbEntity
  8
__
 62
     0
100
AcDbBlockReference
  2
_DOT
 10
-1400.0
 20
-23850.0
 30
0.0
 41
5.9996337890625
 42
5.9996337890625
 43
5.9996337890625
 50
90.0
  0
INSERT
  5
2B2E
330
E8
100
AcDbEntity
  8
__
 62
     0
100
AcDbBlockReference
  2
_DOT
 10
-1400.0
 20
-23890.0
 30
0.0
 41
5.9996337890625
 42
5.9996337890625
 43
5.9996337890625
 50
270.0
  0
MTEXT
  5
2BB1
330
E8
100
AcDbEntity
  8
__
 62
     0
100
AcDbMText
 10
-1411.620081018518
 20
-23870.0
 30
0.0
 40
21.24016203703704
 41
0.0
 71
     5
 72
     1
  1
\A1;40
  7
YUGOTHIC_MEDIUM
 11
0.0
 21
1.0
 31
0.0
  0
POINT
  5
2BB2
330
E8
100
AcDbEntity
  8
DEFPOINTS
 62
     0
100
AcDbPoint
 10
-1300.0
 20
-23850.0
 30
0.0
  0
POINT
  5
2BB3
330
E8
100
AcDbEntity
  8
DEFPOINTS
 62
     0
100
AcDbPoint
 10
-1175.0
 20
-23890.0
 30
0.0
  0
POINT
  5
2BB4
330
E8
100
AcDbEntity
  8
DEFPOINTS
 62
     0
100
AcDbPoint
 10
-1400.0
 20
-23890.0
 30
0.0
  0
ENDBLK
  5
EA
330
E8
100
AcDbEntity
  8
0
100
AcDbBlockEnd
  0
BLOCK
  5
EC
330
EB
100
AcDbEntity
  8
0
100
AcDbBlockBegin
  2
*D47
 70
     1
 10
0.0
 20
0.0
 30
0.0
  3
*D47
  1

  0
LINE
  5
2BB5
330
EB
100
AcDbEntity
  8
__
 62
     0
100
AcDbLine
 10
174.0000000000002
 20
-23890.0
 30
0.0
 11
174.0000000000002
 21
-24070.0
 31
0.0
  0
LINE
  5
2BB6
330
EB
100
AcDbEntity
  8
__
 62
     0
100
AcDbLine
 10
-1174.0
 20
-23890.0
 30
0.0
 11
-1174.0
 21
-24070.0
 31
0.0
  0
LINE
  5
2BB7
330
EB
100
AcDbEntity
  8
__
 62
     0
100
AcDbLine
 10
168.0003662109377
 20
-24070.0
 30
0.0
 11
-1168.000366210938
 21
-24070.0
 31
0.0
  0
INSERT
  5
2BB8
330
EB
100
AcDbEntity
  8
__
 62
     0
100
AcDbBlockReference
  2
_DOT
 10
174.0000000000002
 20
-24070.0
 30
0.0
 41
5.9996337890625
 42
5.9996337890625
 43
5.9996337890625
  0
INSERT
  5
2C3B
330
EB
100
AcDbEntity
  8
__
 62
     0
100
AcDbBlockReference
  2
_DOT
 10
-1174.0
 20
-24070.0
 30
0.0
 41
5.9996337890625
 42
5.9996337890625
 43
5.9996337890625
 50
180.0
  0
MTEXT
  5
2CBE
330
EB
100
AcDbEntity
  8
__
 62
     0
100
AcDbMText
 10
-499.9999999999999
 20
-24058.37991898148
 30
0.0
 40
21.24016203703704
 41
0.0
 71
     5
 72
     1
  1
\A1;1348
  7
YUGOTHIC_MEDIUM
  0
POINT
  5
2CBF
330
EB
100
AcDbEntity
  8
DEFPOINTS
 62
     0
100
AcDbPoint
 10
174.0000000000002
 20
-23870.0
 30
0.0
  0
POINT
  5
2CC0
330
EB
100
AcDbEntity
  8
DEFPOINTS
 62
     0
100
AcDbPoint
 10
-1174.0
 20
-23870.0
 30
0.0
  0
POINT
  5
2CC1
330
EB
100
AcDbEntity
  8
DEFPOINTS
 62
     0
100
AcDbPoint
 10
-1174.0
 20
-24070.0
 30
0.0
  0
ENDBLK
  5
ED
330
EB
100
AcDbEntity
  8
0
100
AcDbBlockEnd
  0
BLOCK
  5
EF
330
EE
100
AcDbEntity
  8
0
100
AcDbBlockBegin
  2
*D48
 70
     1
 10
0.0
 20
0.0
 30
0.0
  3
*D48
  1

  0
LINE
  5
2CC2
330
EE
100
AcDbEntity
  8
__
 62
     0
100
AcDbLine
 10
-1300.0
 20
-23930.0
 30
0.0
 11
-1300.0
 21
-24070.0
 31
0.0
  0
LINE
  5
2CC3
330
EE
100
AcDbEntity
  8
__
 62
     0
100
AcDbLine
 10
-1174.0
 20
-23890.0
 30
0.0
 11
-1174.0
 21
-24070.0
 31
0.0
  0
LINE
  5
2CC4
330
EE
100
AcDbEntity
  8
__
 62
     0
100
AcDbLine
 10
-1294.000366210938
 20
-24070.0
 30
0.0
 11
-1179.999633789063
 21
-24070.0
 31
0.0
  0
INSERT
  5
2CC5
330
EE
100
AcDbEntity
  8
__
 62
     0
100
AcDbBlockReference
  2
_DOT
 10
-1300.0
 20
-24070.0
 30
0.0
 41
5.9996337890625
 42
5.9996337890625
 43
5.9996337890625
 50
180.0
  0
INSERT
  5
2D48
330
EE
100
AcDbEntity
  8
__
 62
     0
100
AcDbBlockReference
  2
_DOT
 10
-1174.0
 20
-24070.0
 30
0.0
 41
5.9996337890625
 42
5.9996337890625
 43
5.9996337890625
  0
MTEXT
  5
2DCB
330
EE
100
AcDbEntity
  8
__
 62
     0
100
AcDbMText
 10
-1237.0
 20
-24058.37991898148
 30
0.0
 40
21.24016203703704
 41
0.0
 71
     5
 72
     1
  1
\A1;126
  7
YUGOTHIC_MEDIUM
  0
POINT
  5
2DCC
330
EE
100
AcDbEntity
  8
DEFPOINTS
 62
     0
100
AcDbPoint
 10
-1300.0
 20
-23910.0
 30
0.0
  0
POINT
  5
2DCD
330
EE
100
AcDbEntity
  8
DEFPOINTS
 62
     0
100
AcDbPoint
 10
-1174.0
 20
-23870.0
 30
0.0
  0
POINT
  5
2DCE
330
EE
100
AcDbEntity
  8
DEFPOINTS
 62
     0
100
AcDbPoint
 10
-1174.0
 20
-24070.0
 30
0.0
  0
ENDBLK
  5
F0
330
EE
100
AcDbEntity
  8
0
100
AcDbBlockEnd
  0
BLOCK
  5
F2
330
F1
100
AcDbEntity
  8
0
100
AcDbBlockBegin
  2
*D49
 70
     1
 10
0.0
 20
0.0
 30
0.0
  3
*D49
  1

  0
LINE
  5
2DCF
330
F1
100
AcDbEntity
  8
__
 62
     0
100
AcDbLine
 10
174.0000000000002
 20
-23930.0
 30
0.0
 11
174.0000000000002
 21
-24070.0
 31
0.0
  0
LINE
  5
2DD0
330
F1
100
AcDbEntity
  8
__
 62
     0
100
AcDbLine
 10
300.0000000000002
 20
-23890.0
 30
0.0
 11
300.0000000000002
 21
-24070.0
 31
0.0
  0
LINE
  5
2DD1
330
F1
100
AcDbEntity
  8
__
 62
     0
100
AcDbLine
 10
179.9996337890627
 20
-24070.0
 30
0.0
 11
294.0003662109377
 21
-24070.0
 31
0.0
  0
INSERT
  5
2DD2
330
F1
100
AcDbEntity
  8
__
 62
     0
100
AcDbBlockReference
  2
_DOT
 10
174.0000000000002
 20
-24070.0
 30
0.0
 41
5.9996337890625
 42
5.9996337890625
 43
5.9996337890625
 50
180.0
  0
INSERT
  5
2E55
330
F1
100
AcDbEntity
  8
__
 62
     0
100
AcDbBlockReference
  2
_DOT
 10
300.0000000000002
 20
-24070.0
 30
0.0
 41
5.9996337890625
 42
5.9996337890625
 43
5.9996337890625
  0
MTEXT
  5
2ED8
330
F1
100
AcDbEntity
  8
__
 62
     0
100
AcDbMText
 10
237.0000000000002
 20
-24058.37991898148
 30
0.0
 40
21.24016203703704
 41
0.0
 71
     5
 72
     1
  1
\A1;126
  7
YUGOTHIC_MEDIUM
  0
POINT
  5
2ED9
330
F1
100
AcDbEntity
  8
DEFPOINTS
 62
     0
100
AcDbPoint
 10
174.0000000000002
 20
-23910.0
 30
0.0
  0
POINT
  5
2EDA
330
F1
100
AcDbEntity
  8
DEFPOINTS
 62
     0
100
AcDbPoint
 10
300.0000000000002
 20
-23870.0
 30
0.0
  0
POINT
  5
2EDB
330
F1
100
AcDbEntity
  8
DEFPOINTS
 62
     0
100
AcDbPoint
 10
300.0000000000002
 20
-24070.0
 30
0.0
  0
ENDBLK
  5
F3
330
F1
100
AcDbEntity
  8
0
100
AcDbBlockEnd
  0
BLOCK
  5
F5
330
F4
100
AcDbEntity
  8
0
100
AcDbBlockBegin
  2
*D50
 70
     1
 10
0.0
 20
0.0
 30
0.0
  3
*D50
  1

  0
LINE
  5
2EDC
330
F4
100
AcDbEntity
  8
__
 62
     0
100
AcDbLine
 10
1420.0
 20
-23850.0
 30
0.0
 11
1500.0
 21
-23850.0
 31
0.0
  0
LINE
  5
2EDD
330
F4
100
AcDbEntity
  8
__
 62
     0
100
AcDbLine
 10
1360.0
 20
-23890.0
 30
0.0
 11
1500.0
 21
-23890.0
 31
0.0
  0
LINE
  5
2EDE
330
F4
100
AcDbEntity
  8
__
 62
     0
100
AcDbLine
 10
1500.0
 20
-23855.99963378906
 30
0.0
 11
1500.0
 21
-23884.00036621094
 31
0.0
  0
INSERT
  5
2EDF
330
F4
100
AcDbEntity
  8
__
 62
     0
100
AcDbBlockReference
  2
_DOT
 10
1500.0
 20
-23850.0
 30
0.0
 41
5.9996337890625
 42
5.9996337890625
 43
5.9996337890625
 50
90.0
  0
INSERT
  5
2F62
330
F4
100
AcDbEntity
  8
__
 62
     0
100
AcDbBlockReference
  2
_DOT
 10
1500.0
 20
-23890.0
 30
0.0
 41
5.9996337890625
 42
5.9996337890625
 43
5.9996337890625
 50
270.0
  0
MTEXT
  5
2FE5
330
F4
100
AcDbEntity
  8
__
 62
     0
100
AcDbMText
 10
1488.379918981482
 20
-23870.0
 30
0.0
 40
21.24016203703704
 41
0.0
 71
     5
 72
     1
  1
\A1;40
  7
YUGOTHIC_MEDIUM
 11
0.0
 21
1.0
 31
0.0
  0
POINT
  5
2FE6
330
F4
100
AcDbEntity
  8
DEFPOINTS
 62
     0
100
AcDbPoint
 10
1400.0
 20
-23850.0
 30
0.0
  0
POINT
  5
2FE7
330
F4
100
AcDbEntity
  8
DEFPOINTS
 62
     0
100
AcDbPoint
 10
1340.0
 20
-23890.0
 30
0.0
  0
POINT
  5
2FE8
330
F4
100
AcDbEntity
  8
DEFPOINTS
 62
     0
100
AcDbPoint
 10
1500.0
 20
-23890.0
 30
0.0
  0
ENDBLK
  5
F6
330
F4
100
AcDbEntity
  8
0
100
AcDbBlockEnd
  0
BLOCK
  5
F8
330
F7
100
AcDbEntity
  8
0
100
AcDbBlockBegin
  2
_1_10_2D
 70
     0
 10
0.0
 20
0.0
 30
0.0
  3
_1_10_2D
  1

  0
POLYLINE
  5
2FE9
330
F7
100
AcDbEntity
  8
_-0_18
 62
     1
100
AcDb2dPolyline
 66
     1
 10
0.0
 20
0.0
 30
0.0
 70
   129
  0
VERTEX
  5
2FEA
330
2FE9
100
AcDbEntity
  8
_-0_18
 62
     1
100
AcDbVertex
100
AcDb2dVertex
 10
-503.9999999999998
 20
-23882.0
 30
0.0
  0
VERTEX
  5
2FEB
330
2FE9
100
AcDbEntity
  8
_-0_18
 62
     1
100
AcDbVertex
100
AcDb2dVertex
 10
-503.9999999999998
 20
-23850.0
 30
0.0
  0
VERTEX
  5
2FEC
330
2FE9
100
AcDbEntity
  8
_-0_18
 62
     1
100
AcDbVertex
100
AcDb2dVertex
 10
-495.9999999999998
 20
-23850.0
 30
0.0
  0
VERTEX
  5
2FED
330
2FE9
100
AcDbEntity
  8
_-0_18
 62
     1
100
AcDbVertex
100
AcDb2dVertex
 10
-495.9999999999998
 20
-23882.0
 30
0.0
  0
SEQEND
  5
2FEE
330
2FE9
100
AcDbEntity
  8
_-0_18
 62
     1
  0
POLYLINE
  5
2FEF
330
F7
100
AcDbEntity
  8
_-0_18
 62
     1
100
AcDb2dPolyline
 66
     1
 10
0.0
 20
0.0
 30
0.0
 70
   129
  0
VERTEX
  5
2FF0
330
2FEF
100
AcDbEntity
  8
_-0_18
 62
     1
100
AcDbVertex
100
AcDb2dVertex
 10
166.0000000000002
 20
-23850.0
 30
0.0
  0
VERTEX
  5
2FF1
330
2FEF
100
AcDbEntity
  8
_-0_18
 62
     1
100
AcDbVertex
100
AcDb2dVertex
 10
174.0000000000002
 20
-23850.0
 30
0.0
  0
VERTEX
  5
2FF2
330
2FEF
100
AcDbEntity
  8
_-0_18
 62
     1
100
AcDbVertex
100
AcDb2dVertex
 10
174.0000000000002
 20
-23878.0
 30
0.0
 42
-0.4142135623730951
 70
     2
 50
-0.000000000000014
  0
VERTEX
  5
2FF3
330
2FEF
100
AcDbEntity
  8
_-0_18
 62
     1
100
AcDbVertex
100
AcDb2dVertex
 10
162.0000000000002
 20
-23890.0
 30
0.0
  0
VERTEX
  5
2FF4
330
2FEF
100
AcDbEntity
  8
_-0_18
 62
     1
100
AcDbVertex
100
AcDb2dVertex
 10
-1162.0
 20
-23890.0
 30
0.0
 42
-0.4142135623730951
 70
     2
 50
3.119036963853517E+17
  0
VERTEX
  5
2FF5
330
2FEF
100
AcDbEntity
  8
_-0_18
 62
     1
100
AcDbVertex
100
AcDb2dVertex
 10
-1174.0
 20
-23878.0
 30
0.0
  0
VERTEX
  5
2FF6
330
2FEF
100
AcDbEntity
  8
_-0_18
 62
     1
100
AcDbVertex
100
AcDb2dVertex
 10
-1174.0
 20
-23850.0
 30
0.0
  0
VERTEX
  5
2FF7
330
2FEF
100
AcDbEntity
  8
_-0_18
 62
     1
100
AcDbVertex
100
AcDb2dVertex
 10
-1166.0
 20
-23850.0
 30
0.0
  0
VERTEX
  5
2FF8
330
2FEF
100
AcDbEntity
  8
_-0_18
 62
     1
100
AcDbVertex
100
AcDb2dVertex
 10
-1166.0
 20
-23878.0
 30
0.0
 42
0.4142135623730951
 70
     2
 50
-0.000000000000007
  0
VERTEX
  5
2FF9
330
2FEF
100
AcDbEntity
  8
_-0_18
 62
     1
100
AcDbVertex
100
AcDb2dVertex
 10
-1162.0
 20
-23882.0
 30
0.0
  0
VERTEX
  5
2FFA
330
2FEF
100
AcDbEntity
  8
_-0_18
 62
     1
100
AcDbVertex
100
AcDb2dVertex
 10
162.0000000000002
 20
-23882.0
 30
0.0
 42
0.4142135623730951
 70
     2
 50
3.119036963853517E+17
  0
VERTEX
  5
2FFB
330
2FEF
100
AcDbEntity
  8
_-0_18
 62
     1
100
AcDbVertex
100
AcDb2dVertex
 10
166.0000000000002
 20
-23878.0
 30
0.0
  0
SEQEND
  5
2FFC
330
2FEF
100
AcDbEntity
  8
_-0_18
 62
     1
  0
POLYLINE
  5
2FFD
330
F7
100
AcDbEntity
  8
__-_____
  6
______-11
 62
     3
100
AcDb2dPolyline
 66
     1
 10
0.0
 20
0.0
 30
0.0
 70
   129
  0
VERTEX
  5
2FFE
330
2FFD
100
AcDbEntity
  8
__-_____
  6
______-11
 62
     3
100
AcDbVertex
100
AcDb2dVertex
 10
-1280.0
 20
-22550.0
 30
0.0
  0
VERTEX
  5
2FFF
330
2FFD
100
AcDbEntity
  8
__-_____
  6
______-11
 62
     3
100
AcDbVertex
100
AcDb2dVertex
 10
280.0
 20
-22550.0
 30
0.0
  0
VERTEX
  5
3000
330
2FFD
100
AcDbEntity
  8
__-_____
  6
______-11
 62
     3
100
AcDbVertex
100
AcDb2dVertex
 10
280.0
 20
-22570.0
 30
0.0
  0
VERTEX
  5
3001
330
2FFD
100
AcDbEntity
  8
__-_____
  6
______-11
 62
     3
100
AcDbVertex
100
AcDb2dVertex
 10
-1280.0
 20
-22570.0
 30
0.0
  0
SEQEND
  5
3002
330
2FFD
100
AcDbEntity
  8
__-_____
  6
______-11
 62
     3
  0
LINE
  5
3003
330
F7
100
AcDbEntity
  8
_-0_25____
 62
     7
100
AcDbLine
 10
-1500.0
 20
-22550.0
 30
0.0
 11
500.0
 21
-22550.0
 31
0.0
  0
POLYLINE
  5
3004
330
F7
100
AcDbEntity
  8
_-0_18
 62
     1
100
AcDb2dPolyline
 66
     1
 10
0.0
 20
0.0
 30
0.0
 70
   129
  0
VERTEX
  5
3005
330
3004
100
AcDbEntity
  8
_-0_18
 62
     1
100
AcDbVertex
100
AcDb2dVertex
 10
-1300.0
 20
-23550.0
 30
0.0
  0
VERTEX
  5
3006
330
3004
100
AcDbEntity
  8
_-0_18
 62
     1
100
AcDbVertex
100
AcDb2dVertex
 10
300.0
 20
-23550.0
 30
0.0
  0
VERTEX
  5
3007
330
3004
100
AcDbEntity
  8
_-0_18
 62
     1
100
AcDbVertex
100
AcDb2dVertex
 10
300.0
 20
-23850.0
 30
0.0
  0
VERTEX
  5
3008
330
3004
100
AcDbEntity
  8
_-0_18
 62
     1
100
AcDbVertex
100
AcDb2dVertex
 10
-1300.0
 20
-23850.0
 30
0.0
  0
SEQEND
  5
3009
330
3004
100
AcDbEntity
  8
_-0_18
 62
     1
  0
POLYLINE
  5
300A
330
F7
100
AcDbEntity
  8
_-0_18
 62
     1
100
AcDb2dPolyline
 66
     1
 10
0.0
 20
0.0
 30
0.0
 70
   129
  0
VERTEX
  5
300B
330
300A
100
AcDbEntity
  8
_-0_18
 62
     1
100
AcDbVertex
100
AcDb2dVertex
 10
-1300.0
 20
-23550.0
 30
0.0
  0
VERTEX
  5
300C
330
300A
100
AcDbEntity
  8
_-0_18
 62
     1
100
AcDbVertex
100
AcDb2dVertex
 10
-1280.0
 20
-23550.0
 30
0.0
  0
VERTEX
  5
300D
330
300A
100
AcDbEntity
  8
_-0_18
 62
     1
100
AcDbVertex
100
AcDb2dVertex
 10
-1280.0
 20
-23850.0
 30
0.0
  0
VERTEX
  5
300E
330
300A
100
AcDbEntity
  8
_-0_18
 62
     1
100
AcDbVertex
100
AcDb2dVertex
 10
-1300.0
 20
-23850.0
 30
0.0
  0
SEQEND
  5
300F
330
300A
100
AcDbEntity
  8
_-0_18
 62
     1
  0
POLYLINE
  5
3010
330
F7
100
AcDbEntity
  8
_-0_18
 62
     1
100
AcDb2dPolyline
 66
     1
 10
0.0
 20
0.0
 30
0.0
 70
   129
  0
VERTEX
  5
3011
330
3010
100
AcDbEntity
  8
_-0_18
 62
     1
100
AcDbVertex
100
AcDb2dVertex
 10
-1300.0
 20
-22550.0
 30
0.0
  0
VERTEX
  5
3012
330
3010
100
AcDbEntity
  8
_-0_18
 62
     1
100
AcDbVertex
100
AcDb2dVertex
 10
-1280.0
 20
-22550.0
 30
0.0
  0
VERTEX
  5
3013
330
3010
100
AcDbEntity
  8
_-0_18
 62
     1
100
AcDbVertex
100
AcDb2dVertex
 10
-1280.0
 20
-22850.0
 30
0.0
  0
VERTEX
  5
3014
330
3010
100
AcDbEntity
  8
_-0_18
 62
     1
100
AcDbVertex
100
AcDb2dVertex
 10
-1300.0
 20
-22850.0
 30
0.0
  0
SEQEND
  5
3015
330
3010
100
AcDbEntity
  8
_-0_18
 62
     1
  0
POLYLINE
  5
3016
330
F7
100
AcDbEntity
  8
_-0_18
 62
     1
100
AcDb2dPolyline
 66
     1
 10
0.0
 20
0.0
 30
0.0
 70
   129
  0
VERTEX
  5
3017
330
3016
100
AcDbEntity
  8
_-0_18
 62
     1
100
AcDbVertex
100
AcDb2dVertex
 10
300.0000000000002
 20
-23850.0
 30
0.0
  0
VERTEX
  5
3018
330
3016
100
AcDbEntity
  8
_-0_18
 62
     1
100
AcDbVertex
100
AcDb2dVertex
 10
280.0000000000002
 20
-23850.0
 30
0.0
  0
VERTEX
  5
3019
330
3016
100
AcDbEntity
  8
_-0_18
 62
     1
100
AcDbVertex
100
AcDb2dVertex
 10
280.0000000000002
 20
-23550.0
 30
0.0
  0
VERTEX
  5
301A
330
3016
100
AcDbEntity
  8
_-0_18
 62
     1
100
AcDbVertex
100
AcDb2dVertex
 10
300.0000000000002
 20
-23550.0
 30
0.0
  0
SEQEND
  5
301B
330
3016
100
AcDbEntity
  8
_-0_18
 62
     1
  0
POLYLINE
  5
301C
330
F7
100
AcDbEntity
  8
_-0_18
 62
     1
100
AcDb2dPolyline
 66
     1
 10
0.0
 20
0.0
 30
0.0
 70
   129
  0
VERTEX
  5
301D
330
301C
100
AcDbEntity
  8
_-0_18
 62
     1
100
AcDbVertex
100
AcDb2dVertex
 10
300.0000000000002
 20
-22850.0
 30
0.0
  0
VERTEX
  5
301E
330
301C
100
AcDbEntity
  8
_-0_18
 62
     1
100
AcDbVertex
100
AcDb2dVertex
 10
280.0000000000002
 20
-22850.0
 30
0.0
  0
VERTEX
  5
301F
330
301C
100
AcDbEntity
  8
_-0_18
 62
     1
100
AcDbVertex
100
AcDb2dVertex
 10
280.0000000000002
 20
-22550.0
 30
0.0
  0
VERTEX
  5
3020
330
301C
100
AcDbEntity
  8
_-0_18
 62
     1
100
AcDbVertex
100
AcDb2dVertex
 10
300.0000000000002
 20
-22550.0
 30
0.0
  0
SEQEND
  5
3021
330
301C
100
AcDbEntity
  8
_-0_18
 62
     1
  0
POLYLINE
  5
3022
330
F7
100
AcDbEntity
  8
_-0_18
 62
     1
100
AcDb2dPolyline
 66
     1
 10
0.0
 20
0.0
 30
0.0
 70
   129
  0
VERTEX
  5
3023
330
3022
100
AcDbEntity
  8
_-0_18
 62
     1
100
AcDbVertex
100
AcDb2dVertex
 10
-1280.0
 20
-23550.0
 30
0.0
  0
VERTEX
  5
3024
330
3022
100
AcDbEntity
  8
_-0_18
 62
     1
100
AcDbVertex
100
AcDb2dVertex
 10
280.0
 20
-23550.0
 30
0.0
  0
VERTEX
  5
3025
330
3022
100
AcDbEntity
  8
_-0_18
 62
     1
100
AcDbVertex
100
AcDb2dVertex
 10
280.0
 20
-23570.0
 30
0.0
  0
VERTEX
  5
3026
330
3022
100
AcDbEntity
  8
_-0_18
 62
     1
100
AcDbVertex
100
AcDb2dVertex
 10
-1280.0
 20
-23570.0
 30
0.0
  0
SEQEND
  5
3027
330
3022
100
AcDbEntity
  8
_-0_18
 62
     1
  0
POLYLINE
  5
3028
330
F7
100
AcDbEntity
  8
_-0_18
 62
     1
100
AcDb2dPolyline
 66
     1
 10
0.0
 20
0.0
 30
0.0
 70
   129
  0
VERTEX
  5
3029
330
3028
100
AcDbEntity
  8
_-0_18
 62
     1
100
AcDbVertex
100
AcDb2dVertex
 10
-1280.0
 20
-23830.0
 30
0.0
  0
VERTEX
  5
302A
330
3028
100
AcDbEntity
  8
_-0_18
 62
     1
100
AcDbVertex
100
AcDb2dVertex
 10
280.0
 20
-23830.0
 30
0.0
  0
VERTEX
  5
302B
330
3028
100
AcDbEntity
  8
_-0_18
 62
     1
100
AcDbVertex
100
AcDb2dVertex
 10
280.0
 20
-23850.0
 30
0.0
  0
VERTEX
  5
302C
330
3028
100
AcDbEntity
  8
_-0_18
 62
     1
100
AcDbVertex
100
AcDb2dVertex
 10
-1280.0
 20
-23850.0
 30
0.0
  0
SEQEND
  5
302D
330
3028
100
AcDbEntity
  8
_-0_18
 62
     1
  0
POLYLINE
  5
302E
330
F7
100
AcDbEntity
  8
_-0_18
 62
     1
100
AcDb2dPolyline
 66
     1
 10
0.0
 20
0.0
 30
0.0
 70
   129
  0
VERTEX
  5
302F
330
302E
100
AcDbEntity
  8
_-0_18
 62
     1
100
AcDbVertex
100
AcDb2dVertex
 10
-246.4999999999998
 20
-23570.0
 30
0.0
  0
VERTEX
  5
3030
330
302E
100
AcDbEntity
  8
_-0_18
 62
     1
100
AcDbVertex
100
AcDb2dVertex
 10
-226.4999999999998
 20
-23570.0
 30
0.0
  0
VERTEX
  5
3031
330
302E
100
AcDbEntity
  8
_-0_18
 62
     1
100
AcDbVertex
100
AcDb2dVertex
 10
-226.4999999999998
 20
-23830.0
 30
0.0
  0
VERTEX
  5
3032
330
302E
100
AcDbEntity
  8
_-0_18
 62
     1
100
AcDbVertex
100
AcDb2dVertex
 10
-246.4999999999998
 20
-23830.0
 30
0.0
  0
SEQEND
  5
3033
330
302E
100
AcDbEntity
  8
_-0_18
 62
     1
  0
POLYLINE
  5
3034
330
F7
100
AcDbEntity
  8
_-0_18
 62
     1
100
AcDb2dPolyline
 66
     1
 10
0.0
 20
0.0
 30
0.0
 70
   129
  0
VERTEX
  5
3035
330
3034
100
AcDbEntity
  8
_-0_18
 62
     1
100
AcDbVertex
100
AcDb2dVertex
 10
-753.4999999999998
 20
-23830.0
 30
0.0
  0
VERTEX
  5
3036
330
3034
100
AcDbEntity
  8
_-0_18
 62
     1
100
AcDbVertex
100
AcDb2dVertex
 10
-773.4999999999998
 20
-23830.0
 30
0.0
  0
VERTEX
  5
3037
330
3034
100
AcDbEntity
  8
_-0_18
 62
     1
100
AcDbVertex
100
AcDb2dVertex
 10
-773.4999999999998
 20
-23570.0
 30
0.0
  0
VERTEX
  5
3038
330
3034
100
AcDbEntity
  8
_-0_18
 62
     1
100
AcDbVertex
100
AcDb2dVertex
 10
-753.4999999999998
 20
-23570.0
 30
0.0
  0
SEQEND
  5
3039
330
3034
100
AcDbEntity
  8
_-0_18
 62
     1
  0
POLYLINE
  5
303A
330
F7
100
AcDbEntity
  8
__-_____
  6
______-11
 62
     3
100
AcDb2dPolyline
 66
     1
 10
0.0
 20
0.0
 30
0.0
 70
   129
  0
VERTEX
  5
303B
330
303A
100
AcDbEntity
  8
__-_____
  6
______-11
 62
     3
100
AcDbVertex
100
AcDb2dVertex
 10
-246.9999999999998
 20
-22570.0
 30
0.0
  0
VERTEX
  5
303C
330
303A
100
AcDbEntity
  8
__-_____
  6
______-11
 62
     3
100
AcDbVertex
100
AcDb2dVertex
 10
-226.9999999999998
 20
-22570.0
 30
0.0
  0
VERTEX
  5
303D
330
303A
100
AcDbEntity
  8
__-_____
  6
______-11
 62
     3
100
AcDbVertex
100
AcDb2dVertex
 10
-226.9999999999998
 20
-22850.0
 30
0.0
  0
VERTEX
  5
303E
330
303A
100
AcDbEntity
  8
__-_____
  6
______-11
 62
     3
100
AcDbVertex
100
AcDb2dVertex
 10
-246.9999999999998
 20
-22850.0
 30
0.0
  0
SEQEND
  5
303F
330
303A
100
AcDbEntity
  8
__-_____
  6
______-11
 62
     3
  0
POLYLINE
  5
3040
330
F7
100
AcDbEntity
  8
__-_____
  6
______-11
 62
     3
100
AcDb2dPolyline
 66
     1
 10
0.0
 20
0.0
 30
0.0
 70
   129
  0
VERTEX
  5
3041
330
3040
100
AcDbEntity
  8
__-_____
  6
______-11
 62
     3
100
AcDbVertex
100
AcDb2dVertex
 10
-752.9999999999998
 20
-22850.0
 30
0.0
  0
VERTEX
  5
3042
330
3040
100
AcDbEntity
  8
__-_____
  6
______-11
 62
     3
100
AcDbVertex
100
AcDb2dVertex
 10
-772.9999999999998
 20
-22850.0
 30
0.0
  0
VERTEX
  5
3043
330
3040
100
AcDbEntity
  8
__-_____
  6
______-11
 62
     3
100
AcDbVertex
100
AcDb2dVertex
 10
-772.9999999999998
 20
-22570.0
 30
0.0
  0
VERTEX
  5
3044
330
3040
100
AcDbEntity
  8
__-_____
  6
______-11
 62
     3
100
AcDbVertex
100
AcDb2dVertex
 10
-752.9999999999998
 20
-22570.0
 30
0.0
  0
SEQEND
  5
3045
330
3040
100
AcDbEntity
  8
__-_____
  6
______-11
 62
     3
  0
POLYLINE
  5
3046
330
F7
100
AcDbEntity
  8
__-_____
  6
______-11
 62
     3
100
AcDb2dPolyline
 66
     1
 10
0.0
 20
0.0
 30
0.0
 70
   129
  0
VERTEX
  5
3047
330
3046
100
AcDbEntity
  8
__-_____
  6
______-11
 62
     3
100
AcDbVertex
100
AcDb2dVertex
 10
1100.0
 20
-23550.0
 30
0.0
  0
VERTEX
  5
3048
330
3046
100
AcDbEntity
  8
__-_____
  6
______-11
 62
     3
100
AcDbVertex
100
AcDb2dVertex
 10
1400.0
 20
-23550.0
 30
0.0
  0
VERTEX
  5
3049
330
3046
100
AcDbEntity
  8
__-_____
  6
______-11
 62
     3
100
AcDbVertex
100
AcDb2dVertex
 10
1400.0
 20
-23570.0
 30
0.0
  0
VERTEX
  5
304A
330
3046
100
AcDbEntity
  8
__-_____
  6
______-11
 62
     3
100
AcDbVertex
100
AcDb2dVertex
 10
1100.0
 20
-23570.0
 30
0.0
  0
SEQEND
  5
304B
330
3046
100
AcDbEntity
  8
__-_____
  6
______-11
 62
     3
  0
POLYLINE
  5
304C
330
F7
100
AcDbEntity
  8
__-_____
  6
______-11
 62
     3
100
AcDb2dPolyline
 66
     1
 10
0.0
 20
0.0
 30
0.0
 70
   129
  0
VERTEX
  5
304D
330
304C
100
AcDbEntity
  8
__-_____
  6
______-11
 62
     3
100
AcDbVertex
100
AcDb2dVertex
 10
1100.0
 20
-23830.0
 30
0.0
  0
VERTEX
  5
304E
330
304C
100
AcDbEntity
  8
__-_____
  6
______-11
 62
     3
100
AcDbVertex
100
AcDb2dVertex
 10
1400.0
 20
-23830.0
 30
0.0
  0
VERTEX
  5
304F
330
304C
100
AcDbEntity
  8
__-_____
  6
______-11
 62
     3
100
AcDbVertex
100
AcDb2dVertex
 10
1400.0
 20
-23850.0
 30
0.0
  0
VERTEX
  5
3050
330
304C
100
AcDbEntity
  8
__-_____
  6
______-11
 62
     3
100
AcDbVertex
100
AcDb2dVertex
 10
1100.0
 20
-23850.0
 30
0.0
  0
SEQEND
  5
3051
330
304C
100
AcDbEntity
  8
__-_____
  6
______-11
 62
     3
  0
POLYLINE
  5
3052
330
F7
100
AcDbEntity
  8
__-_____
  6
______-11
 62
     3
100
AcDb2dPolyline
 66
     1
 10
0.0
 20
0.0
 30
0.0
 70
   129
  0
VERTEX
  5
3053
330
3052
100
AcDbEntity
  8
__-_____
  6
______-11
 62
     3
100
AcDbVertex
100
AcDb2dVertex
 10
1380.0
 20
-23570.0
 30
0.0
  0
VERTEX
  5
3054
330
3052
100
AcDbEntity
  8
__-_____
  6
______-11
 62
     3
100
AcDbVertex
100
AcDb2dVertex
 10
1400.0
 20
-23570.0
 30
0.0
  0
VERTEX
  5
3055
330
3052
100
AcDbEntity
  8
__-_____
  6
______-11
 62
     3
100
AcDbVertex
100
AcDb2dVertex
 10
1400.0
 20
-23830.0
 30
0.0
  0
VERTEX
  5
3056
330
3052
100
AcDbEntity
  8
__-_____
  6
______-11
 62
     3
100
AcDbVertex
100
AcDb2dVertex
 10
1380.0
 20
-23830.0
 30
0.0
  0
SEQEND
  5
3057
330
3052
100
AcDbEntity
  8
__-_____
  6
______-11
 62
     3
  0
POLYLINE
  5
3058
330
F7
100
AcDbEntity
  8
_-0_18
 62
     1
100
AcDb2dPolyline
 66
     1
 10
0.0
 20
0.0
 30
0.0
 70
   129
  0
VERTEX
  5
3059
330
3058
100
AcDbEntity
  8
_-0_18
 62
     1
100
AcDbVertex
100
AcDb2dVertex
 10
1336.0
 20
-23850.0
 30
0.0
  0
VERTEX
  5
305A
330
3058
100
AcDbEntity
  8
_-0_18
 62
     1
100
AcDbVertex
100
AcDb2dVertex
 10
1344.0
 20
-23850.0
 30
0.0
  0
VERTEX
  5
305B
330
3058
100
AcDbEntity
  8
_-0_18
 62
     1
100
AcDbVertex
100
AcDb2dVertex
 10
1344.0
 20
-23886.0
 30
0.0
 42
-0.4142135623730951
 70
     2
 50
-0.000000000000014
  0
VERTEX
  5
305C
330
3058
100
AcDbEntity
  8
_-0_18
 62
     1
100
AcDbVertex
100
AcDb2dVertex
 10
1340.0
 20
-23890.0
 30
0.0
 42
-0.4142135623731117
 70
     2
 50
-1011225922956912
  0
VERTEX
  5
305D
330
3058
100
AcDbEntity
  8
_-0_18
 62
     1
100
AcDbVertex
100
AcDb2dVertex
 10
1336.0
 20
-23886.0
 30
0.0
  0
SEQEND
  5
305E
330
3058
100
AcDbEntity
  8
_-0_18
 62
     1
  0
DIMENSION
  5
305F
330
F7
100
AcDbEntity
  8
__
 62
     4
100
AcDbDimension
  2
*D4
 10
-1300.0
 20
-22390.0
 30
0.0
 11
-1290.0
 21
-22378.37991898148
 31
0.0
 70
    32
  3
TOOLBOX
100
AcDbAlignedDimension
 13
-1280.0
 23
-22550.0
 33
0.0
 14
-1300.0
 24
-22550.0
 34
0.0
100
AcDbRotatedDimension
1001
ACAD
1000
DSTYLE
1002
{
1070
   147
1040
1.0
1070
   340
1005
61
1002
}
  0
DIMENSION
  5
3062
330
F7
100
AcDbEntity
  8
__
 62
     4
100
AcDbDimension
  2
*D5
 10
-1280.0
 20
-22390.0
 30
0.0
 11
-499.9999999999999
 21
-22378.37991898148
 31
0.0
 70
    32
  3
TOOLBOX
100
AcDbAlignedDimension
 13
280.0000000000002
 23
-22550.0
 33
0.0
 14
-1280.0
 24
-22550.0
 34
0.0
100
AcDbRotatedDimension
1001
ACAD
1000
DSTYLE
1002
{
1070
   147
1040
1.0
1070
   340
1005
61
1002
}
  0
DIMENSION
  5
3063
330
F7
100
AcDbEntity
  8
__
 62
     4
100
AcDbDimension
  2
*D6
 10
280.0000000000002
 20
-22390.0
 30
0.0
 11
290.0000000000002
 21
-22378.37991898148
 31
0.0
 70
    32
  3
TOOLBOX
100
AcDbAlignedDimension
 13
300.0000000000002
 23
-22550.0
 33
0.0
 14
280.0000000000002
 24
-22550.0
 34
0.0
100
AcDbRotatedDimension
1001
ACAD
1000
DSTYLE
1002
{
1070
   147
1040
1.0
1070
   340
1005
61
1002
}
  0
DIMENSION
  5
3066
330
F7
100
AcDbEntity
  8
__
 62
     4
100
AcDbDimension
  2
*D7
 10
-1280.0
 20
-22450.0
 30
0.0
 11
-1026.5
 21
-22438.37991898148
 31
0.0
 70
    32
  3
TOOLBOX
100
AcDbAlignedDimension
 13
-772.9999999999998
 23
-22550.0
 33
0.0
 14
-1280.0
 24
-22550.0
 34
0.0
100
AcDbRotatedDimension
1001
ACAD
1000
DSTYLE
1002
{
1070
   147
1040
1.0
1070
   340
1005
61
1002
}
  0
DIMENSION
  5
3067
330
F7
100
AcDbEntity
  8
__
 62
     4
100
AcDbDimension
  2
*D8
 10
-772.9999999999998
 20
-22450.0
 30
0.0
 11
-762.9999999999998
 21
-22438.37991898148
 31
0.0
 70
    32
  3
TOOLBOX
100
AcDbAlignedDimension
 13
-752.9999999999998
 23
-22550.0
 33
0.0
 14
-772.9999999999998
 24
-22550.0
 34
0.0
100
AcDbRotatedDimension
1001
ACAD
1000
DSTYLE
1002
{
1070
   147
1040
1.0
1070
   340
1005
61
1002
}
  0
DIMENSION
  5
306A
330
F7
100
AcDbEntity
  8
__
 62
     4
100
AcDbDimension
  2
*D9
 10
-752.9999999999998
 20
-22450.0
 30
0.0
 11
-499.9999999999998
 21
-22438.37991898148
 31
0.0
 70
    32
  3
TOOLBOX
100
AcDbAlignedDimension
 13
-246.9999999999998
 23
-22550.0
 33
0.0
 14
-752.9999999999998
 24
-22550.0
 34
0.0
100
AcDbRotatedDimension
1001
ACAD
1000
DSTYLE
1002
{
1070
   147
1040
1.0
1070
   340
1005
61
1002
}
  0
DIMENSION
  5
306B
330
F7
100
AcDbEntity
  8
__
 62
     4
100
AcDbDimension
  2
*D10
 10
-246.9999999999998
 20
-22450.0
 30
0.0
 11
-236.9999999999998
 21
-22438.37991898148
 31
0.0
 70
    32
  3
TOOLBOX
100
AcDbAlignedDimension
 13
-226.9999999999998
 23
-22550.0
 33
0.0
 14
-246.9999999999998
 24
-22550.0
 34
0.0
100
AcDbRotatedDimension
1001
ACAD
1000
DSTYLE
1002
{
1070
   147
1040
1.0
1070
   340
1005
61
1002
}
  0
DIMENSION
  5
306E
330
F7
100
AcDbEntity
  8
__
 62
     4
100
AcDbDimension
  2
*D11
 10
-226.9999999999998
 20
-22450.0
 30
0.0
 11
26.50000000000023
 21
-22438.37991898148
 31
0.0
 70
    32
  3
TOOLBOX
100
AcDbAlignedDimension
 13
280.0000000000002
 23
-22550.0
 33
0.0
 14
-226.9999999999998
 24
-22550.0
 34
0.0
100
AcDbRotatedDimension
1001
ACAD
1000
DSTYLE
1002
{
1070
   147
1040
1.0
1070
   340
1005
61
1002
}
  0
DIMENSION
  5
306F
330
F7
100
AcDbEntity
  8
__
 62
     4
100
AcDbDimension
  2
*D12
 10
-1300.0
 20
-23370.0
 30
0.0
 11
-1290.0
 21
-23358.37991898148
 31
0.0
 70
    32
  3
TOOLBOX
100
AcDbAlignedDimension
 13
-1280.0
 23
-23550.0
 33
0.0
 14
-1300.0
 24
-23550.0
 34
0.0
100
AcDbRotatedDimension
1001
ACAD
1000
DSTYLE
1002
{
1070
   147
1040
1.0
1070
   340
1005
61
1002
}
  0
DIMENSION
  5
3072
330
F7
100
AcDbEntity
  8
__
 62
     4
100
AcDbDimension
  2
*D13
 10
-1280.0
 20
-23370.0
 30
0.0
 11
-499.9999999999999
 21
-23358.37991898148
 31
0.0
 70
    32
  3
TOOLBOX
100
AcDbAlignedDimension
 13
280.0000000000002
 23
-23550.0
 33
0.0
 14
-1280.0
 24
-23550.0
 34
0.0
100
AcDbRotatedDimension
1001
ACAD
1000
DSTYLE
1002
{
1070
   147
1040
1.0
1070
   340
1005
61
1002
}
  0
DIMENSION
  5
3073
330
F7
100
AcDbEntity
  8
__
 62
     4
100
AcDbDimension
  2
*D14
 10
280.0000000000002
 20
-23370.0
 30
0.0
 11
290.0000000000002
 21
-23358.37991898148
 31
0.0
 70
    32
  3
TOOLBOX
100
AcDbAlignedDimension
 13
300.0000000000002
 23
-23550.0
 33
0.0
 14
280.0000000000002
 24
-23550.0
 34
0.0
100
AcDbRotatedDimension
1001
ACAD
1000
DSTYLE
1002
{
1070
   147
1040
1.0
1070
   340
1005
61
1002
}
  0
DIMENSION
  5
3076
330
F7
100
AcDbEntity
  8
__
 62
     4
100
AcDbDimension
  2
*D15
 10
-1280.0
 20
-23450.0
 30
0.0
 11
-1026.5
 21
-23438.37991898148
 31
0.0
 70
    32
  3
TOOLBOX
100
AcDbAlignedDimension
 13
-772.9999999999998
 23
-23550.0
 33
0.0
 14
-1280.0
 24
-23550.0
 34
0.0
100
AcDbRotatedDimension
1001
ACAD
1000
DSTYLE
1002
{
1070
   147
1040
1.0
1070
   340
1005
61
1002
}
  0
DIMENSION
  5
3077
330
F7
100
AcDbEntity
  8
__
 62
     4
100
AcDbDimension
  2
*D16
 10
-772.9999999999998
 20
-23450.0
 30
0.0
 11
-762.9999999999998
 21
-23438.37991898148
 31
0.0
 70
    32
  3
TOOLBOX
100
AcDbAlignedDimension
 13
-752.9999999999998
 23
-23550.0
 33
0.0
 14
-772.9999999999998
 24
-23550.0
 34
0.0
100
AcDbRotatedDimension
1001
ACAD
1000
DSTYLE
1002
{
1070
   147
1040
1.0
1070
   340
1005
61
1002
}
  0
DIMENSION
  5
307A
330
F7
100
AcDbEntity
  8
__
 62
     4
100
AcDbDimension
  2
*D17
 10
-752.9999999999998
 20
-23450.0
 30
0.0
 11
-499.9999999999998
 21
-23438.37991898148
 31
0.0
 70
    32
  3
TOOLBOX
100
AcDbAlignedDimension
 13
-246.9999999999998
 23
-23550.0
 33
0.0
 14
-752.9999999999998
 24
-23550.0
 34
0.0
100
AcDbRotatedDimension
1001
ACAD
1000
DSTYLE
1002
{
1070
   147
1040
1.0
1070
   340
1005
61
1002
}
  0
DIMENSION
  5
307B
330
F7
100
AcDbEntity
  8
__
 62
     4
100
AcDbDimension
  2
*D18
 10
-246.9999999999998
 20
-23450.0
 30
0.0
 11
-236.9999999999998
 21
-23438.37991898148
 31
0.0
 70
    32
  3
TOOLBOX
100
AcDbAlignedDimension
 13
-226.9999999999998
 23
-23550.0
 33
0.0
 14
-246.9999999999998
 24
-23550.0
 34
0.0
100
AcDbRotatedDimension
1001
ACAD
1000
DSTYLE
1002
{
1070
   147
1040
1.0
1070
   340
1005
61
1002
}
  0
DIMENSION
  5
307E
330
F7
100
AcDbEntity
  8
__
 62
     4
100
AcDbDimension
  2
*D19
 10
-226.9999999999998
 20
-23450.0
 30
0.0
 11
26.50000000000023
 21
-23438.37991898148
 31
0.0
 70
    32
  3
TOOLBOX
100
AcDbAlignedDimension
 13
280.0000000000002
 23
-23550.0
 33
0.0
 14
-226.9999999999998
 24
-23550.0
 34
0.0
100
AcDbRotatedDimension
1001
ACAD
1000
DSTYLE
1002
{
1070
   147
1040
1.0
1070
   340
1005
61
1002
}
  0
DIMENSION
  5
307F
330
F7
100
AcDbEntity
  8
__
 62
     4
100
AcDbDimension
  2
*D20
 10
-1300.0
 20
-23990.0
 30
0.0
 11
-1235.0
 21
-23978.37991898148
 31
0.0
 70
    32
  3
TOOLBOX
100
AcDbAlignedDimension
 13
-1170.0
 23
-23890.0
 33
0.0
 14
-1300.0
 24
-23890.0
 34
0.0
100
AcDbRotatedDimension
1001
ACAD
1000
DSTYLE
1002
{
1070
   147
1040
1.0
1070
   340
1005
61
1002
}
  0
DIMENSION
  5
3080
330
F7
100
AcDbEntity
  8
__
 62
     4
100
AcDbDimension
  2
*D21
 10
-1170.0
 20
-23990.0
 30
0.0
 11
-834.9999999999999
 21
-23978.37991898148
 31
0.0
 70
    32
  3
TOOLBOX
100
AcDbAlignedDimension
 13
-499.9999999999998
 23
-23890.0
 33
0.0
 14
-1170.0
 24
-23890.0
 34
0.0
100
AcDbRotatedDimension
1001
ACAD
1000
DSTYLE
1002
{
1070
   147
1040
1.0
1070
   340
1005
61
1002
}
  0
DIMENSION
  5
3081
330
F7
100
AcDbEntity
  8
__
 62
     4
100
AcDbDimension
  2
*D22
 10
170.0000000000002
 20
-23990.0
 30
0.0
 11
235.0000000000002
 21
-23978.37991898148
 31
0.0
 70
    32
  3
TOOLBOX
100
AcDbAlignedDimension
 13
300.0000000000002
 23
-23890.0
 33
0.0
 14
170.0000000000002
 24
-23890.0
 34
0.0
100
AcDbRotatedDimension
1001
ACAD
1000
DSTYLE
1002
{
1070
   147
1040
1.0
1070
   340
1005
61
1002
}
  0
DIMENSION
  5
3082
330
F7
100
AcDbEntity
  8
__
 62
     4
100
AcDbDimension
  2
*D23
 10
-1300.0
 20
-23290.0
 30
0.0
 11
-499.9999999999999
 21
-23278.37991898148
 31
0.0
 70
    32
  3
TOOLBOX
100
AcDbAlignedDimension
 13
300.0000000000002
 23
-23510.0
 33
0.0
 14
-1300.0
 24
-23510.0
 34
0.0
100
AcDbRotatedDimension
1001
ACAD
1000
DSTYLE
1002
{
1070
   147
1040
1.0
1070
   340
1005
61
1002
}
  0
DIMENSION
  5
3083
330
F7
100
AcDbEntity
  8
__
 62
     4
100
AcDbDimension
  2
*D24
 10
377.8333333333338
 20
-23550.0
 30
0.0
 11
377.8333333333338
 21
-23519.80631553475
 31
0.0
 70
   160
  3
TOOLBOX
100
AcDbAlignedDimension
 13
300.0000000000005
 23
-23570.0
 33
0.0
 14
300.0000000000005
 24
-23550.0
 34
0.0
 50
-90.0
100
AcDbRotatedDimension
1001
ACAD
1000
DSTYLE
1002
{
1070
   147
1040
1.0
1070
   174
1070
     0
1070
   340
1005
61
1002
}
  0
DIMENSION
  5
3086
330
F7
100
AcDbEntity
  8
__
 62
     4
100
AcDbDimension
  2
*D25
 10
400.0000000000005
 20
-23570.0
 30
0.0
 11
388.3799189814822
 21
-23700.0
 31
0.0
 70
    32
  3
TOOLBOX
100
AcDbAlignedDimension
 13
300.0000000000005
 23
-23830.0
 33
0.0
 14
300.0000000000005
 24
-23570.0
 34
0.0
 50
-90.0
100
AcDbRotatedDimension
1001
ACAD
1000
DSTYLE
1002
{
1070
   147
1040
1.0
1070
   340
1005
61
1002
}
  0
DIMENSION
  5
3087
330
F7
100
AcDbEntity
  8
__
 62
     4
100
AcDbDimension
  2
*D26
 10
377.8333333333338
 20
-23830.0
 30
0.0
 11
377.8333333333338
 21
-23880.19368446525
 31
0.0
 70
   160
  3
TOOLBOX
100
AcDbAlignedDimension
 13
300.0000000000005
 23
-23850.0
 33
0.0
 14
300.0000000000005
 24
-23830.0
 34
0.0
 50
-90.0
100
AcDbRotatedDimension
1001
ACAD
1000
DSTYLE
1002
{
1070
   147
1040
1.0
1070
   174
1070
     0
1070
   340
1005
61
1002
}
  0
DIMENSION
  5
308A
330
F7
100
AcDbEntity
  8
__
 62
     4
100
AcDbDimension
  2
*D27
 10
-1400.0
 20
-23550.0
 30
0.0
 11
-1411.620081018518
 21
-23700.0
 31
0.0
 70
    32
  3
TOOLBOX
100
AcDbAlignedDimension
 13
-1300.0
 23
-23850.0
 33
0.0
 14
-1300.0
 24
-23550.0
 34
0.0
 50
-90.0
100
AcDbRotatedDimension
1001
ACAD
1000
DSTYLE
1002
{
1070
   147
1040
1.0
1070
   340
1005
61
1002
}
  0
DIMENSION
  5
308B
330
F7
100
AcDbEntity
  8
__
 62
     4
100
AcDbDimension
  2
*D28
 10
377.8333333333335
 20
-22550.0
 30
0.0
 11
377.8333333333335
 21
-22519.80631553475
 31
0.0
 70
   160
  3
TOOLBOX
100
AcDbAlignedDimension
 13
300.0000000000002
 23
-22570.0
 33
0.0
 14
300.0000000000002
 24
-22550.0
 34
0.0
 50
-90.0
100
AcDbRotatedDimension
1001
ACAD
1000
DSTYLE
1002
{
1070
   147
1040
1.0
1070
   174
1070
     0
1070
   340
1005
61
1002
}
  0
DIMENSION
  5
308E
330
F7
100
AcDbEntity
  8
__
 62
     4
100
AcDbDimension
  2
*D29
 10
400.0000000000002
 20
-22570.0
 30
0.0
 11
388.379918981482
 21
-22710.0
 31
0.0
 70
    32
  3
TOOLBOX
100
AcDbAlignedDimension
 13
300.0000000000002
 23
-22850.0
 33
0.0
 14
300.0000000000002
 24
-22570.0
 34
0.0
 50
-90.0
100
AcDbRotatedDimension
1001
ACAD
1000
DSTYLE
1002
{
1070
   147
1040
1.0
1070
   340
1005
61
1002
}
  0
LINE
  5
308F
330
F7
100
AcDbEntity
  8
__-0_05
  6
______-6
 62
    17
100
AcDbLine
 10
-1170.0
 20
-23900.0
 30
0.0
 11
-1170.0
 21
-23800.0
 31
0.0
  0
LINE
  5
3090
330
F7
100
AcDbEntity
  8
__-0_05
  6
______-6
 62
    17
100
AcDbLine
 10
170.0000000000002
 20
-23900.0
 30
0.0
 11
170.0000000000002
 21
-23800.0
 31
0.0
  0
LINE
  5
3091
330
F7
100
AcDbEntity
  8
__-0_05
  6
______-6
 62
    17
100
AcDbLine
 10
-499.9999999999998
 20
-23900.0
 30
0.0
 11
-499.9999999999998
 21
-23800.0
 31
0.0
  0
LINE
  5
3092
330
F7
100
AcDbEntity
  8
_-0_18
  6
______-6
 62
     1
100
AcDbLine
 10
1340.0
 20
-23900.0
 30
0.0
 11
1340.0
 21
-23800.0
 31
0.0
  0
DIMENSION
  5
3093
330
F7
100
AcDbEntity
  8
__
 62
     4
100
AcDbDimension
  2
*D30
 10
977.8333333333336
 20
-23550.0
 30
0.0
 11
977.8333333333336
 21
-23519.80631553475
 31
0.0
 70
   160
  3
TOOLBOX
100
AcDbAlignedDimension
 13
1100.0
 23
-23570.0
 33
0.0
 14
1100.0
 24
-23550.0
 34
0.0
 50
-90.0
100
AcDbRotatedDimension
1001
ACAD
1000
DSTYLE
1002
{
1070
   147
1040
1.0
1070
   174
1070
     0
1070
   340
1005
61
1002
}
  0
DIMENSION
  5
3096
330
F7
100
AcDbEntity
  8
__
 62
     4
100
AcDbDimension
  2
*D31
 10
1000.0
 20
-23570.0
 30
0.0
 11
988.379918981482
 21
-23700.0
 31
0.0
 70
    32
  3
TOOLBOX
100
AcDbAlignedDimension
 13
1100.0
 23
-23830.0
 33
0.0
 14
1100.0
 24
-23570.0
 34
0.0
 50
-90.0
100
AcDbRotatedDimension
1001
ACAD
1000
DSTYLE
1002
{
1070
   147
1040
1.0
1070
   340
1005
61
1002
}
  0
DIMENSION
  5
3097
330
F7
100
AcDbEntity
  8
__
 62
     4
100
AcDbDimension
  2
*D32
 10
977.8333333333336
 20
-23830.0
 30
0.0
 11
977.8333333333336
 21
-23880.19368446525
 31
0.0
 70
   160
  3
TOOLBOX
100
AcDbAlignedDimension
 13
1100.0
 23
-23850.0
 33
0.0
 14
1100.0
 24
-23830.0
 34
0.0
 50
-90.0
100
AcDbRotatedDimension
1001
ACAD
1000
DSTYLE
1002
{
1070
   147
1040
1.0
1070
   174
1070
     0
1070
   340
1005
61
1002
}
  0
DIMENSION
  5
309A
330
F7
100
AcDbEntity
  8
__
 62
     4
100
AcDbDimension
  2
*D33
 10
1500.0
 20
-23550.0
 30
0.0
 11
1488.379918981482
 21
-23700.0
 31
0.0
 70
    32
  3
TOOLBOX
100
AcDbAlignedDimension
 13
1400.0
 23
-23850.0
 33
0.0
 14
1400.0
 24
-23550.0
 34
0.0
 50
-90.0
100
AcDbRotatedDimension
1001
ACAD
1000
DSTYLE
1002
{
1070
   147
1040
1.0
1070
   340
1005
61
1002
}
  0
DIMENSION
  5
309B
330
F7
100
AcDbEntity
  8
__
 62
     4
100
AcDbDimension
  2
*D34
 10
1100.0
 20
-23450.0
 30
0.0
 11
1240.0
 21
-23438.37991898148
 31
0.0
 70
    32
  3
TOOLBOX
100
AcDbAlignedDimension
 13
1380.0
 23
-23550.0
 33
0.0
 14
1100.0
 24
-23550.0
 34
0.0
100
AcDbRotatedDimension
1001
ACAD
1000
DSTYLE
1002
{
1070
   147
1040
1.0
1070
   340
1005
61
1002
}
  0
DIMENSION
  5
309C
330
F7
100
AcDbEntity
  8
__
 62
     4
100
AcDbDimension
  2
*D35
 10
1380.0
 20
-23427.83333333333
 30
0.0
 11
1430.193684465251
 21
-23427.83333333333
 31
0.0
 70
   160
  3
TOOLBOX
100
AcDbAlignedDimension
 13
1400.0
 23
-23550.0
 33
0.0
 14
1380.0
 24
-23550.0
 34
0.0
100
AcDbRotatedDimension
1001
ACAD
1000
DSTYLE
1002
{
1070
   147
1040
1.0
1070
   174
1070
     0
1070
   340
1005
61
1002
}
  0
DIMENSION
  5
309F
330
F7
100
AcDbEntity
  8
__
 62
     4
100
AcDbDimension
  2
*D36
 10
1100.0
 20
-24050.0
 30
0.0
 11
1250.0
 21
-24038.37991898148
 31
0.0
 70
    32
  3
TOOLBOX
100
AcDbAlignedDimension
 13
1400.0
 23
-23890.0
 33
0.0
 14
1100.0
 24
-23890.0
 34
0.0
100
AcDbRotatedDimension
1001
ACAD
1000
DSTYLE
1002
{
1070
   147
1040
1.0
1070
   340
1005
61
1002
}
  0
DIMENSION
  5
30A0
330
F7
100
AcDbEntity
  8
__
 62
     4
100
AcDbDimension
  2
*D37
 10
1100.0
 20
-23990.0
 30
0.0
 11
1220.0
 21
-23978.37991898148
 31
0.0
 70
    32
  3
TOOLBOX
100
AcDbAlignedDimension
 13
1340.0
 23
-23890.0
 33
0.0
 14
1100.0
 24
-23890.0
 34
0.0
100
AcDbRotatedDimension
1001
ACAD
1000
DSTYLE
1002
{
1070
   147
1040
1.0
1070
   340
1005
61
1002
}
  0
DIMENSION
  5
30A1
330
F7
100
AcDbEntity
  8
__
 62
     4
100
AcDbDimension
  2
*D38
 10
1340.0
 20
-23990.0
 30
0.0
 11
1370.0
 21
-23978.37991898148
 31
0.0
 70
    32
  3
TOOLBOX
100
AcDbAlignedDimension
 13
1400.0
 23
-23890.0
 33
0.0
 14
1340.0
 24
-23890.0
 34
0.0
100
AcDbRotatedDimension
1001
ACAD
1000
DSTYLE
1002
{
1070
   147
1040
1.0
1070
   340
1005
61
1002
}
  0
DIMENSION
  5
30A2
330
F7
100
AcDbEntity
  8
__
 62
     4
100
AcDbDimension
  2
*D39
 10
-1400.0
 20
-22550.0
 30
0.0
 11
-1411.620081018518
 21
-22700.0
 31
0.0
 70
    32
  3
TOOLBOX
100
AcDbAlignedDimension
 13
-1300.0
 23
-22850.0
 33
0.0
 14
-1300.0
 24
-22550.0
 34
0.0
 50
-90.0
100
AcDbRotatedDimension
1001
ACAD
1000
DSTYLE
1002
{
1070
   147
1040
1.0
1070
   340
1005
61
1002
}
  0
DIMENSION
  5
30A3
330
F7
100
AcDbEntity
  8
__
 62
     4
100
AcDbDimension
  2
*D40
 10
-1300.0
 20
-22950.0
 30
0.0
 11
-499.9999999999999
 21
-22938.37991898148
 31
0.0
 70
    32
  3
TOOLBOX
100
AcDbAlignedDimension
 13
300.0000000000002
 23
-22850.0
 33
0.0
 14
-1300.0
 24
-22850.0
 34
0.0
100
AcDbRotatedDimension
1001
ACAD
1000
DSTYLE
1002
{
1070
   147
1040
1.0
1070
   340
1005
61
1002
}
  0
DIMENSION
  5
30A4
330
F7
100
AcDbEntity
  8
__
 62
     4
100
AcDbDimension
  2
*D41
 10
-499.9999999999998
 20
-23990.0
 30
0.0
 11
-164.9999999999998
 21
-23978.37991898148
 31
0.0
 70
    32
  3
TOOLBOX
100
AcDbAlignedDimension
 13
170.0000000000002
 23
-23890.0
 33
0.0
 14
-499.9999999999998
 24
-23890.0
 34
0.0
100
AcDbRotatedDimension
1001
ACAD
1000
DSTYLE
1002
{
1070
   147
1040
1.0
1070
   340
1005
61
1002
}
  0
INSERT
  5
30A5
330
F7
100
AcDbEntity
  8
_-0_18
 62
     1
100
AcDbBlockReference
  2
____-3
 10
0.0
 20
0.0
 30
0.0
  0
INSERT
  5
30A6
330
F7
100
AcDbEntity
  8
_-0_18
 62
     1
100
AcDbBlockReference
  2
____-4
 10
0.0
 20
0.0
 30
0.0
  0
INSERT
  5
30A7
330
F7
100
AcDbEntity
  8
_-0_18
 62
     1
100
AcDbBlockReference
  2
____-5
 10
0.0
 20
0.0
 30
0.0
  0
LINE
  5
30A8
330
F7
100
AcDbEntity
  8
_-0_18
 62
     1
100
AcDbLine
 10
-1170.0
 20
-23830.0
 30
0.0
 11
-1116.583867953602
 21
-23737.48054535183
 31
0.0
  0
POLYLINE
  5
30A9
330
F7
100
AcDbEntity
  8
_-0_18
 62
    17
100
AcDb2dPolyline
 66
     1
 10
0.0
 20
0.0
 30
0.0
 70
   129
  0
VERTEX
  5
30AA
330
30A9
100
AcDbEntity
  8
_-0_18
 62
    17
100
AcDbVertex
100
AcDb2dVertex
 10
-1168.667721726766
 20
-23828.46738916485
 30
0.0
  0
VERTEX
  5
30AB
330
30A9
100
AcDbEntity
  8
_-0_18
 62
    17
100
AcDbVertex
100
AcDb2dVertex
 10
-1170.0
 20
-23830.0
 30
0.0
  0
VERTEX
  5
30AC
330
30A9
100
AcDbEntity
  8
_-0_18
 62
    17
100
AcDbVertex
100
AcDb2dVertex
 10
-1169.272251715311
 20
-23828.10415090171
 30
0.0
  0
SEQEND
  5
30AD
330
30A9
100
AcDbEntity
  8
_-0_18
 62
    17
  0
MTEXT
  5
30AE
330
F7
100
AcDbEntity
  8
_-0_18
 62
     1
100
AcDbMText
 10
-1103.059562398046
 20
-23700.58572291702
 30
0.0
 40
21.24016203703704
 41
0.0
 71
     1
 72
     1
  1
{\fYuGothic Medium|b0|i0|c128|p0;3-φ5貫通＋皿ザグリ}
1001
ACAD
1000
MTEXTBEGIN
1070
    44
1040
1.200650352274149
1000
MTEXTEND
  0
LINE
  5
30AF
330
F7
100
AcDbEntity
  8
_-0_18
 62
     1
100
AcDbLine
 10
-1116.583867953602
 20
-23737.48054535183
 30
0.0
 11
-796.5838679536016
 21
-23737.48054535183
 31
0.0
  0
MTEXT
  5
30B0
330
F7
100
AcDbEntity
  8
_-0_18
 62
     1
100
AcDbMText
 10
-1103.059562398046
 20
-23746.07593887035
 30
0.0
 40
21.24016203703704
 41
0.0
 71
     1
 72
     1
  1
{\fYuGothic Medium|b0|i0|c128|p0;皿小ねじM4×28}
1001
ACAD
1000
MTEXTBEGIN
1070
    44
1040
1.200650352274149
1000
MTEXTEND
  0
LINE
  5
30B1
330
F7
100
AcDbEntity
  8
_-0_25____
 62
     7
100
AcDbLine
 10
1400.0
 20
-23406.66666666667
 30
0.0
 11
1400.0
 21
-24117.51421629544
 31
0.0
  0
DIMENSION
  5
30B2
330
F7
100
AcDbEntity
  8
__
 62
     4
100
AcDbDimension
  2
*D45
 10
-680.9719375145462
 20
-23882.0
 30
0.0
 11
-680.9719375145462
 21
-23930.44999851969
 31
0.0
 70
   160
  3
TOOLBOX
100
AcDbAlignedDimension
 13
-753.0317681559856
 23
-23890.0
 33
0.0
 14
-751.8770676176064
 24
-23882.0
 34
0.0
 50
-90.0
100
AcDbRotatedDimension
1001
ACAD
1000
DSTYLE
1002
{
1070
   147
1040
0.9999999999998863
1070
   174
1070
     0
1070
     3
1000
φ<>
1070
   340
1005
61
1002
}
  0
DIMENSION
  5
30B5
330
F7
100
AcDbEntity
  8
__
 62
     4
100
AcDbDimension
  2
*D46
 10
-1400.0
 20
-23890.0
 30
0.0
 11
-1411.620081018518
 21
-23870.0
 31
0.0
 70
    32
  3
TOOLBOX
100
AcDbAlignedDimension
 13
-1300.0
 23
-23850.0
 33
0.0
 14
-1175.0
 24
-23890.0
 34
0.0
 50
-90.0
100
AcDbRotatedDimension
1001
ACAD
1000
DSTYLE
1002
{
1070
   147
1040
1.0
1070
   340
1005
61
1002
}
  0
DIMENSION
  5
30B6
330
F7
100
AcDbEntity
  8
__
 62
     4
100
AcDbDimension
  2
*D47
 10
-1174.0
 20
-24070.0
 30
0.0
 11
-499.9999999999999
 21
-24058.37991898148
 31
0.0
 70
    32
  3
TOOLBOX
100
AcDbAlignedDimension
 13
174.0000000000002
 23
-23870.0
 33
0.0
 14
-1174.0
 24
-23870.0
 34
0.0
100
AcDbRotatedDimension
1001
ACAD
1000
DSTYLE
1002
{
1070
   147
1040
1.0
1070
   340
1005
61
1002
}
  0
DIMENSION
  5
30B7
330
F7
100
AcDbEntity
  8
__
 62
     4
100
AcDbDimension
  2
*D48
 10
-1174.0
 20
-24070.0
 30
0.0
 11
-1237.0
 21
-24058.37991898148
 31
0.0
 70
    32
  3
TOOLBOX
100
AcDbAlignedDimension
 13
-1300.0
 23
-23910.0
 33
0.0
 14
-1174.0
 24
-23870.0
 34
0.0
100
AcDbRotatedDimension
1001
ACAD
1000
DSTYLE
1002
{
1070
   147
1040
1.0
1070
   340
1005
61
1002
}
  0
DIMENSION
  5
30B8
330
F7
100
AcDbEntity
  8
__
 62
     4
100
AcDbDimension
  2
*D49
 10
300.0000000000002
 20
-24070.0
 30
0.0
 11
237.0000000000002
 21
-24058.37991898148
 31
0.0
 70
    32
  3
TOOLBOX
100
AcDbAlignedDimension
 13
174.0000000000002
 23
-23910.0
 33
0.0
 14
300.0000000000002
 24
-23870.0
 34
0.0
100
AcDbRotatedDimension
1001
ACAD
1000
DSTYLE
1002
{
1070
   147
1040
1.0
1070
   340
1005
61
1002
}
  0
DIMENSION
  5
30B9
330
F7
100
AcDbEntity
  8
__
 62
     4
100
AcDbDimension
  2
*D50
 10
1500.0
 20
-23890.0
 30
0.0
 11
1488.379918981482
 21
-23870.0
 31
0.0
 70
    32
  3
TOOLBOX
100
AcDbAlignedDimension
 13
1400.0
 23
-23850.0
 33
0.0
 14
1340.0
 24
-23890.0
 34
0.0
 50
-90.0
100
AcDbRotatedDimension
1001
ACAD
1000
DSTYLE
1002
{
1070
   147
1040
1.0
1070
   340
1005
61
1002
}
  0
POLYLINE
  5
30BA
330
F7
100
AcDbEntity
  8
_-0_18
 62
     1
100
AcDb2dPolyline
 66
     1
 10
0.0
 20
0.0
 30
0.0
 70
   129
  0
VERTEX
  5
30BB
330
30BA
100
AcDbEntity
  8
_-0_18
 62
     1
100
AcDbVertex
100
AcDb2dVertex
 10
1100.0
 20
-23550.0
 30
0.0
  0
VERTEX
  5
30BC
330
30BA
100
AcDbEntity
  8
_-0_18
 62
     1
100
AcDbVertex
100
AcDb2dVertex
 10
1400.0
 20
-23550.0
 30
0.0
  0
VERTEX
  5
30BD
330
30BA
100
AcDbEntity
  8
_-0_18
 62
     1
100
AcDbVertex
100
AcDb2dVertex
 10
1400.0
 20
-23850.0
 30
0.0
  0
VERTEX
  5
30BE
330
30BA
100
AcDbEntity
  8
_-0_18
 62
     1
100
AcDbVertex
100
AcDb2dVertex
 10
1100.0
 20
-23850.0
 30
0.0
  0
SEQEND
  5
30BF
330
30BA
100
AcDbEntity
  8
_-0_18
 62
     1
  0
POLYLINE
  5
30C0
330
F7
100
AcDbEntity
  8
_-0_18
 62
     1
100
AcDb2dPolyline
 66
     1
 10
0.0
 20
0.0
 30
0.0
 70
   129
  0
VERTEX
  5
30C1
330
30C0
100
AcDbEntity
  8
_-0_18
 62
     1
100
AcDbVertex
100
AcDb2dVertex
 10
-1280.0
 20
-22550.0
 30
0.0
  0
VERTEX
  5
30C2
330
30C0
100
AcDbEntity
  8
_-0_18
 62
     1
100
AcDbVertex
100
AcDb2dVertex
 10
280.0
 20
-22550.0
 30
0.0
  0
VERTEX
  5
30C3
330
30C0
100
AcDbEntity
  8
_-0_18
 62
     1
100
AcDbVertex
100
AcDb2dVertex
 10
280.0
 20
-22850.0
 30
0.0
  0
VERTEX
  5
30C4
330
30C0
100
AcDbEntity
  8
_-0_18
 62
     1
100
AcDbVertex
100
AcDb2dVertex
 10
-1280.0
 20
-22850.0
 30
0.0
  0
SEQEND
  5
30C5
330
30C0
100
AcDbEntity
  8
_-0_18
 62
     1
  0
ENDBLK
  5
F9
330
F7
100
AcDbEntity
  8
0
100
AcDbBlockEnd
  0
BLOCK
  5
FE
330
FD
100
AcDbEntity
  8
0
100
AcDbBlockBegin
  2
____-6
 70
     0
 10
0.0
 20
0.0
 30
0.0
  3
____-6
  1

  0
MTEXT
  5
30C6
330
FD
100
AcDbEntity
  8
_-0_18
 62
     1
100
AcDbMText
 10
169.8246666666665
 20
81.41672369266695
 30
0.0
 40
2.124016203703704
 41
51.99999999999998
 71
     5
 72
     1
  1
{\fYuGothic Medium|b0|i0|c128|p0;ー}
1001
ACAD
1000
MTEXTBEGIN
1070
    44
1040
0.8004335681827656
1000
MTEXTEND
  0
ENDBLK
  5
FF
330
FD
100
AcDbEntity
  8
0
100
AcDbBlockEnd
  0
BLOCK
  5
148
330
147
100
AcDbEntity
  8
0
100
AcDbBlockBegin
  2
_DOT
 70
     0
 10
0.0
 20
0.0
 30
0.0
  3
_DOT
  1

  0
POLYLINE
  5
14A
330
147
100
AcDbEntity
  8
0
  6
BYBLOCK
 62
     0
100
AcDb2dPolyline
 66
     1
 10
0.0
 20
0.0
 30
0.0
 70
     1
 40
0.5
 41
0.5
  0
VERTEX
  5
30D6
330
14A
100
AcDbEntity
  8
0
  6
BYBLOCK
 62
     0
100
AcDbVertex
100
AcDb2dVertex
 10
-0.25
 20
0.0
 30
0.0
 42
1.0
  0
VERTEX
  5
30D7
330
14A
100
AcDbEntity
  8
0
  6
BYBLOCK
 62
     0
100
AcDbVertex
100
AcDb2dVertex
 10
0.25
 20
0.0
 30
0.0
 42
1.0
  0
SEQEND
  5
30E1
330
14A
100
AcDbEntity
  8
0
  6
BYBLOCK
 62
     0
  0
LINE
  5
14B
330
147
100
AcDbEntity
  8
0
  6
BYBLOCK
 62
     0
100
AcDbLine
 10
-0.5
 20
0.0
 30
0.0
 11
-1.0
 21
0.0
 31
0.0
  0
ENDBLK
  5
149
330
147
100
AcDbEntity
  8
0
100
AcDbBlockEnd
  0
ENDSEC
  0
SECTION
  2
ENTITIES
  0
INSERT
  5
30C7
330
1F
100
AcDbEntity
  8
__-1
 62
    17
100
AcDbBlockReference
  2
____-2
 10
0.0000000000008527
 20
-23350.0
 30
0.0
 41
10.0
 42
10.0
 43
10.0
  0
INSERT
  5
30C8
330
1F
100
AcDbEntity
  8
____-7
 62
     7
100
AcDbBlockReference
  2
_1_10_2D
 10
0.0
 20
0.0
 30
0.0
  0
MTEXT
  5
30C9
330
1F
100
AcDbEntity
  8
__-1
 62
    17
100
AcDbMText
 10
291.7988835059282
 20
-24774.08384403738
 30
0.0
 40
21.24016203703702
 41
0.0
 71
     7
 72
     1
  1
{\fYuGothic Medium|b0|i0|c128|p0;横長オープン棚 W1600}
1001
ACAD
1000
MTEXTBEGIN
1070
    44
1040
0.8004335681827665
1000
MTEXTEND
  0
MTEXT
  5
30CA
330
1F
100
AcDbEntity
  8
__-1
 62
    17
100
AcDbMText
 10
1119.440226952644
 20
-24772.28217793312
 30
0.0
 40
21.24016203703702
 41
0.0
 71
     7
 72
     1
  1
{\fYuGothic Medium|b0|i0|c128|p0;KB-KC034-24}
1001
ACAD
1000
MTEXTBEGIN
1070
    44
1040
0.7003793721599207
1000
MTEXTEND
  0
INSERT
  5
30CB
330
1F
100
AcDbEntity
  8
__-1
 62
    17
100
AcDbBlockReference
  2
____-6
 10
0.0000000000008527
 20
-23350.0
 30
0.0
 41
10.0
 42
10.0
 43
10.0
  0
VIEWPORT
  5
100
330
1B
100
AcDbEntity
 67
     1
  8
0
100
AcDbViewport
 68
     1
 10
128.5
 20
97.5
 30
0.0
 40
314.226
 41
222.18
 68
     1
 69
     1
1001
ACAD
1000
MVIEW
1002
{
1070
    16
1010
0.0
1020
0.0
1030
0.0
1010
0.0
1020
0.0
1030
1.0
1040
0.0
1040
222.18
1040
128.5
1040
97.5
1040
50.0
1040
0.0
1040
0.0
1070
     0
1070
   100
1070
     0
1070
     3
1070
     0
1070
     0
1070
     0
1070
     0
1040
0.0
1040
0.0
1040
0.0
1040
10.0
1040
10.0
1040
10.0
1040
10.0
1070
     0
1002
{
1002
}
1002
}
  0
ENDSEC
  0
SECTION
  2
OBJECTS
  0
DICTIONARY
  5
C
330
0
100
AcDbDictionary
  3
ACAD_GROUP
350
D
  3
ACAD_IMAGE_VARS
350
103
  3
ACAD_LAYOUT
350
1A
  3
ACAD_MATERIAL
350
43
  3
ACAD_MLEADERSTYLE
350
5B
  3
ACAD_MLINESTYLE
350
17
  3
ACAD_PLOTSETTINGS
350
19
  3
ACAD_SCALELIST
350
47
  3
ACAD_VISUALSTYLE
350
2A
  3
ACAD_WIPEOUT_VARS
350
102
  3
ACDBVARIABLEDICTIONARY
350
30CC
  3
DWGPROPS
350
30D5
1001
ACAD
1000
TREAT_AS_HARD
1070
     0
  0
DICTIONARY
  5
D
102
{ACAD_REACTORS
330
C
102
}
330
C
100
AcDbDictionary
1001
ACAD
1000
TREAT_AS_HARD
1070
     0
  0
RASTERVARIABLES
  5
103
102
{ACAD_REACTORS
330
C
102
}
330
C
100
AcDbRasterVariables
 90
        0
 70
     0
 71
     1
 72
     1
  0
DICTIONARY
  5
1A
102
{ACAD_REACTORS
330
C
102
}
330
C
100
AcDbDictionary
1001
ACAD
1000
TREAT_AS_HARD
1070
     0
  0
DICTIONARY
  5
43
102
{ACAD_REACTORS
330
C
102
}
330
C
100
AcDbDictionary
  3
BYBLOCK
350
45
  3
BYLAYER
350
44
  3
GLOBAL
350
46
1001
ACAD
1000
TREAT_AS_HARD
1070
     0
  0
DICTIONARY
  5
5B
102
{ACAD_REACTORS
330
C
102
}
330
C
100
AcDbDictionary
  3
STANDARD
350
5C
1001
ACAD
1000
TREAT_AS_HARD
1070
     0
  0
DICTIONARY
  5
17
102
{ACAD_REACTORS
330
C
102
}
330
C
100
AcDbDictionary
  3
STANDARD
350
18
1001
ACAD
1000
TREAT_AS_HARD
1070
     0
  0
DICTIONARY
  5
19
102
{ACAD_REACTORS
330
C
102
}
330
C
100
AcDbDictionary
1001
ACAD
1000
TREAT_AS_HARD
1070
     0
  0
DICTIONARY
  5
47
102
{ACAD_REACTORS
330
C
102
}
330
C
100
AcDbDictionary
  3
A0
350
48
  3
A1
350
49
  3
A2
350
4A
  3
A3
350
4B
  3
A4
350
4C
  3
A5
350
4D
  3
A6
350
4E
  3
A7
350
4F
  3
A8
350
50
  3
A9
350
51
  3
B1
350
52
  3
B2
350
53
  3
B3
350
54
  3
B4
350
55
  3
B5
350
56
  3
B6
350
57
  3
B7
350
58
1001
ACAD
1000
TREAT_AS_HARD
1070
     0
  0
DICTIONARY
  5
2A
102
{ACAD_REACTORS
330
C
102
}
330
C
100
AcDbDictionary
  3
2DWIREFRAME
350
2F
  3
BASIC
350
32
  3
BRIGHTEN
350
36
  3
COLORCHANGE
350
3A
  3
CONCEPTUAL
350
34
  3
DIM
350
35
  3
EDGECOLOROFF
350
3D
  3
FACEPATTERN
350
39
  3
FLAT
350
2B
  3
FLATWITHEDGES
350
2C
  3
GOURAUD
350
2D
  3
GOURAUDWITHEDGES
350
2E
  3
HIDDEN
350
31
  3
JITTEROFF
350
3B
  3
LINEPATTERN
350
38
  3
OVERHANGOFF
350
3C
  3
REALISTIC
350
33
  3
SHADED
350
42
  3
SHADED_WITH_EDGES
350
41
  3
SHADES_OF_GRAY
350
3E
  3
SKETCHY
350
3F
  3
THICKEN
350
37
  3
WIREFRAME
350
30
  3
X-RAY
350
40
1001
ACAD
1000
TREAT_AS_HARD
1070
     0
  0
WIPEOUTVARIABLES
  5
102
102
{ACAD_REACTORS
330
C
102
}
330
C
100
AcDbWipeoutVariables
 70
     0
  0
DICTIONARY
  5
30CC
102
{ACAD_REACTORS
330
C
102
}
330
C
100
AcDbDictionary
  3
CANNOSCALE
350
30D8
  3
CMLEADERSTYLE
350
30CE
  3
CTABLESTYLE
350
30CD
  3
DIMASSOC
350
30D3
  3
HIDETEXT
350
30D4
  3
MSLTSCALE
350
30D9
  3
WIPEOUTFRAME
350
30D2
  3
XCLIPFRAME
350
30CF
1001
ACAD
1000
TREAT_AS_HARD
1070
     0
  0
XRECORD
  5
30D5
102
{ACAD_REACTORS
330
C
102
}
330
C
100
AcDbXrecord
  1
DWGPROPS COOKIE
  2

  3

  4

  6

  7

  8
osako
  9

300
=
301
=
302
=
303
=
304
=
305
=
306
=
307
=
308
=
309
=
 40
0.0
 41
2460647.325410405
 42
2460647.32551662
  1

 90
        0
  0
MATERIAL
  5
45
102
{ACAD_REACTORS
330
43
102
}
102
{ACAD_XDICTIONARY
360
30DC
102
}
330
43
100
AcDbMaterial
  1
BYBLOCK
  0
MATERIAL
  5
44
102
{ACAD_REACTORS
330
43
102
}
102
{ACAD_XDICTIONARY
360
30DA
102
}
330
43
100
AcDbMaterial
  1
BYLAYER
  0
MATERIAL
  5
46
102
{ACAD_REACTORS
330
43
102
}
102
{ACAD_XDICTIONARY
360
30DE
102
}
330
43
100
AcDbMaterial
  1
GLOBAL
  0
ACAD_PROXY_OBJECT
  5
5C
102
{ACAD_REACTORS
330
5B
102
}
330
5B
100
AcDbZombieObject
 90
      499
 91
      505
 93
      610
310
40901902A4063FBFFFFFE056BD1B81E855B9FC0AD7A3703D0AD73F4214DD185B99185C9900AD7A3703D0AC73F90141901A02B5E8DC0F42B1CFC02B5E8DC0F42B1CFE5764000000000000300FC0
340
14
340
0
340
11
340
0
 94
        0
1001
ACAD_MLEADERVER
1070
     2
  0
MLINESTYLE
  5
18
102
{ACAD_REACTORS
330
17
102
}
330
17
100
AcDbMlineStyle
  2
Standard
 70
     0
  3

 62
   256
 51
90.0
 52
90.0
 71
     2
 49
0.5
 62
   256
  6
BYLAYER
 49
-0.5
 62
   256
  6
BYLAYER
  0
ACAD_PROXY_OBJECT
  5
48
102
{ACAD_REACTORS
330
47
102
}
330
47
100
AcDbZombieObject
 90
      499
 91
      503
 93
       41
310
903313A31580
  0
ACAD_PROXY_OBJECT
  5
49
102
{ACAD_REACTORS
330
47
102
}
330
47
100
AcDbZombieObject
 90
      499
 91
      503
 93
      257
310
90E312F31323822203D2031272D3022000000000000200FC000000000000284000
  0
ACAD_PROXY_OBJECT
  5
4A
102
{ACAD_REACTORS
330
47
102
}
330
47
100
AcDbZombieObject
 90
      499
 91
      503
 93
      249
310
90D312F363422203D2031272D3022000000000000240FC000000000000284000
  0
ACAD_PROXY_OBJECT
  5
4B
102
{ACAD_REACTORS
330
47
102
}
330
47
100
AcDbZombieObject
 90
      499
 91
      503
 93
      249
310
90D312F333222203D2031272D3022000000000000280FC000000000000284000
  0
ACAD_PROXY_OBJECT
  5
4C
102
{ACAD_REACTORS
330
47
102
}
330
47
100
AcDbZombieObject
 90
      499
 91
      503
 93
      249
310
90D312F313622203D2031272D30220000000000002C0FC000000000000284000
  0
ACAD_PROXY_OBJECT
  5
4D
102
{ACAD_REACTORS
330
47
102
}
330
47
100
AcDbZombieObject
 90
      499
 91
      503
 93
      249
310
90D332F333222203D2031272D30220000000000002E0FC000000000000284000
  0
ACAD_PROXY_OBJECT
  5
4E
102
{ACAD_REACTORS
330
47
102
}
330
47
100
AcDbZombieObject
 90
      499
 91
      503
 93
      241
310
90C312F3822203D2031272D3022000000000000300FC000000000000284000
  0
ACAD_PROXY_OBJECT
  5
4F
102
{ACAD_REACTORS
330
47
102
}
330
47
100
AcDbZombieObject
 90
      499
 91
      503
 93
      249
310
90D332F313622203D2031272D3022000000000000320FC000000000000284000
  0
ACAD_PROXY_OBJECT
  5
50
102
{ACAD_REACTORS
330
47
102
}
330
47
100
AcDbZombieObject
 90
      499
 91
      503
 93
      241
310
90C312F3422203D2031272D3022000000000000340FC000000000000284000
  0
ACAD_PROXY_OBJECT
  5
51
102
{ACAD_REACTORS
330
47
102
}
330
47
100
AcDbZombieObject
 90
      499
 91
      503
 93
      241
310
90C332F3822203D2031272D3022000000000000360FC000000000000284000
  0
ACAD_PROXY_OBJECT
  5
52
102
{ACAD_REACTORS
330
47
102
}
330
47
100
AcDbZombieObject
 90
      499
 91
      503
 93
      241
310
90C312F3222203D2031272D3022000000000000380FC000000000000284000
  0
ACAD_PROXY_OBJECT
  5
53
102
{ACAD_REACTORS
330
47
102
}
330
47
100
AcDbZombieObject
 90
      499
 91
      503
 93
      241
310
90C332F3422203D2031272D30220000000000003A0FC000000000000284000
  0
ACAD_PROXY_OBJECT
  5
54
102
{ACAD_REACTORS
330
47
102
}
330
47
100
AcDbZombieObject
 90
      499
 91
      503
 93
      161
310
90A3122203D2031272D30224000000000000284000
  0
ACAD_PROXY_OBJECT
  5
55
102
{ACAD_REACTORS
330
47
102
}
330
47
100
AcDbZombieObject
 90
      499
 91
      503
 93
      257
310
90E312D312F3222203D2031272D30220000000000003E0FC000000000000284000
  0
ACAD_PROXY_OBJECT
  5
56
102
{ACAD_REACTORS
330
47
102
}
330
47
100
AcDbZombieObject
 90
      499
 91
      503
 93
      225
310
90A3322203D2031272D302200000000000002100000000000000284000
  0
ACAD_PROXY_OBJECT
  5
57
102
{ACAD_REACTORS
330
47
102
}
330
47
100
AcDbZombieObject
 90
      499
 91
      503
 93
      225
310
90A3622203D2031272D302200000000000006100000000000000284000
  0
ACAD_PROXY_OBJECT
  5
58
102
{ACAD_REACTORS
330
47
102
}
330
47
100
AcDbZombieObject
 90
      499
 91
      503
 93
      249
310
90D31272D3022203D2031272D30220000000000000A100000000000000284000
  0
ACAD_PROXY_OBJECT
  5
2F
102
{ACAD_REACTORS
330
2A
102
}
330
2A
100
AcDbZombieObject
 90
      499
 91
      501
 93
      436
310
42CC9915DA5C99599C985B595049028333333333333E33F0000000000000F90107901411070040501600405405064090741402480A0340
1001
ACAD
1000
AcDbSavedByObjectVersion
1070
     0
  0
ACAD_PROXY_OBJECT
  5
32
102
{ACAD_REACTORS
330
2A
102
}
330
2A
100
AcDbZombieObject
 90
      499
 91
      501
 93
      388
310
4150985CDA58D07406404333333333333E33F0000000000000F90107A41107004050150841D405064090741402480A0350
1001
ACAD
1000
AcDbSavedByObjectVersion
1070
     0
  0
ACAD_PROXY_OBJECT
  5
36
102
{ACAD_REACTORS
330
2A
102
}
330
2A
100
AcDbZombieObject
 90
      499
 91
      501
 93
      428
310
42109C9A59DA1D195B90C409028333333333333E33F0000000000000F9010790141107004050150841D405064090741402480A029950
1001
ACAD
1000
AcDbSavedByObjectVersion
1070
     0
  0
ACAD_PROXY_OBJECT
  5
3A
102
{ACAD_REACTORS
330
2A
102
}
330
2A
100
AcDbZombieObject
 90
      499
 91
      501
 93
      452
310
42D0DBDB1BDC90DA185B99D95104090240C333333333333E33F0000000000000F90108901411070040501508421405064090741402480A0350
1001
ACAD
1000
AcDbSavedByObjectVersion
1070
     0
  0
ACAD_PROXY_OBJECT
  5
34
102
{ACAD_REACTORS
330
2A
102
}
330
2A
100
AcDbZombieObject
 90
      499
 91
      501
 93
      500
310
4290DBDB98D95C1D1D585B10940D028333333333333E33F0000000000000F90107902409070040501000000000018199010841D405064090740C02480A0340
1001
ACAD
1000
AcDbSavedByObjectVersion
1070
     0
  0
ACAD_PROXY_OBJECT
  5
35
102
{ACAD_REACTORS
330
2A
102
}
330
2A
100
AcDbZombieObject
 90
      499
 91
      501
 93
      412
310
40D11A5B50B409028333333333333E33F0000000000000F9010790141107004050150841D405064090741402480A02677FFFFFD0
1001
ACAD
1000
AcDbSavedByObjectVersion
1070
     0
  0
ACAD_PROXY_OBJECT
  5
3D
102
{ACAD_REACTORS
330
2A
102
}
330
2A
100
AcDbZombieObject
 90
      499
 91
      501
 93
      452
310
43115919D950DBDB1BDC93D999916409028333333333333E33F0000000000000F9010790141107004050150841D405064090741402480A0350
1001
ACAD
1000
AcDbSavedByObjectVersion
1070
     0
  0
ACAD_PROXY_OBJECT
  5
39
102
{ACAD_REACTORS
330
2A
102
}
330
2A
100
AcDbZombieObject
 90
      499
 91
      501
 93
      444
310
42D19858D95C185D1D195C9B90F409028333333333333E33F0000000000000F9010790141107004050150841D405064090741402480A0350
1001
ACAD
1000
AcDbSavedByObjectVersion
1070
     0
  0
ACAD_PROXY_OBJECT
  5
2B
102
{ACAD_REACTORS
330
2A
102
}
330
2A
100
AcDbZombieObject
 90
      499
 91
      501
 93
      380
310
41119B185D240901404333333333333E33F0000000000000F9010740A907004050150841D405064090741402480A1B50
1001
ACAD
1000
AcDbSavedByObjectVersion
1070
     0
  0
ACAD_PROXY_OBJECT
  5
2C
102
{ACAD_REACTORS
330
2A
102
}
330
2A
100
AcDbZombieObject
 90
      499
 91
      501
 93
      468
310
43519B185D15DA5D1A115919D95CD0140901404333333333333E33F0000000000000F90107409019070040501600405405064090741402480A1B50
1001
ACAD
1000
AcDbSavedByObjectVersion
1070
     0
  0
ACAD_PROXY_OBJECT
  5
2D
102
{ACAD_REACTORS
330
2A
102
}
330
2A
100
AcDbZombieObject
 90
      499
 91
      501
 93
      404
310
41D1DBDD5C985D5910240902404333333333333E33F0000000000000F9010740A9070040501641D405064090741402480A1B50
1001
ACAD
1000
AcDbSavedByObjectVersion
1070
     0
  0
ACAD_PROXY_OBJECT
  5
2E
102
{ACAD_REACTORS
330
2A
102
}
330
2A
100
AcDbZombieObject
 90
      499
 91
      501
 93
      492
310
4411DBDD5C985D5915DA5D1A115919D95CD0340902404333333333333E33F0000000000000F90107409019070040501600405405064090741402480A1B50
1001
ACAD
1000
AcDbSavedByObjectVersion
1070
     0
  0
ACAD_PROXY_OBJECT
  5
31
102
{ACAD_REACTORS
330
2A
102
}
330
2A
100
AcDbZombieObject
 90
      499
 91
      501
 93
      476
310
41921A5919195B90640502408333333333333E33F0000000000000F901079024090700405020000000000001110200405405064090740C02480A0340
1001
ACAD
1000
AcDbSavedByObjectVersion
1070
     0
  0
ACAD_PROXY_OBJECT
  5
3B
102
{ACAD_REACTORS
330
2A
102
}
330
2A
100
AcDbZombieObject
 90
      499
 91
      501
 93
      428
310
42529A5D1D195C93D999914409028333333333333E33F0000000000000F9010790141107004050150A41D405064090741402480A0350
1001
ACAD
1000
AcDbSavedByObjectVersion
1070
     0
  0
ACAD_PROXY_OBJECT
  5
38
102
{ACAD_REACTORS
330
2A
102
}
330
2A
100
AcDbZombieObject
 90
      499
 91
      501
 93
      444
310
42D31A5B995C185D1D195C9B90E409028333333333333E33F0000000000000F9010790141107004050750841D405064090741402483A0350
1001
ACAD
1000
AcDbSavedByObjectVersion
1070
     0
  0
ACAD_PROXY_OBJECT
  5
3C
102
{ACAD_REACTORS
330
2A
102
}
330
2A
100
AcDbZombieObject
 90
      499
 91
      501
 93
      444
310
42D3DD995C9A185B99D3D999915409028333333333333E33F0000000000000F9010790141107004050150941D405064090741402480A0350
1001
ACAD
1000
AcDbSavedByObjectVersion
1070
     0
  0
ACAD_PROXY_OBJECT
  5
33
102
{ACAD_REACTORS
330
2A
102
}
330
2A
100
AcDbZombieObject
 90
      499
 91
      501
 93
      428
310
425499585B1A5CDD1A58D08409038333333333333E33F0000000000000F9010740A907004050150800405405064090740C02480A1B40
1001
ACAD
1000
AcDbSavedByObjectVersion
1070
     0
  0
ACAD_PROXY_OBJECT
  5
42
102
{ACAD_REACTORS
330
2A
102
}
330
2A
100
AcDbZombieObject
 90
      499
 91
      501
 93
      420
310
4194DA1859195911B40902404333333333333E33F0000000000000F9010740A41107004050150800405405064090840C02480A0B40
1001
ACAD
1000
AcDbSavedByObjectVersion
1070
     0
  0
ACAD_PROXY_OBJECT
  5
41
102
{ACAD_REACTORS
330
2A
102
}
330
2A
100
AcDbZombieObject
 90
      499
 91
      501
 93
      516
310
4454DA18591959081DDA5D1A08195919D95CD1A40902404333333333333E33F0000000000000F901074090142907004050250800405405064090740C02480A0B40
1001
ACAD
1000
AcDbSavedByObjectVersion
1070
     0
  0
ACAD_PROXY_OBJECT
  5
3E
102
{ACAD_REACTORS
330
2A
102
}
330
2A
100
AcDbZombieObject
 90
      499
 91
      501
 93
      532
310
4394DA1859195CC81BD98811DC985E5174090240C333333333333E33F0000000000000F901079024090741D01000000000000111010841D405064090740C02480A0340
1001
ACAD
1000
AcDbSavedByObjectVersion
1070
     0
  0
ACAD_PROXY_OBJECT
  5
3F
102
{ACAD_REACTORS
330
2A
102
}
330
2A
100
AcDbZombieObject
 90
      499
 91
      501
 93
      476
310
41D4DAD95D18DA1E51840502408333333333333E33F0000000000000F901079024090741D01000000000000111010B41D405064090741802480A0340
1001
ACAD
1000
AcDbSavedByObjectVersion
1070
     0
  0
ACAD_PROXY_OBJECT
  5
37
102
{ACAD_REACTORS
330
2A
102
}
330
2A
100
AcDbZombieObject
 90
      499
 91
      501
 93
      412
310
41D51A1A58DAD95B90D409028333333333333E33F0000000000000F9010790141107004050150C41D405064090741402480A0350
1001
ACAD
1000
AcDbSavedByObjectVersion
1070
     0
  0
ACAD_PROXY_OBJECT
  5
30
102
{ACAD_REACTORS
330
2A
102
}
330
2A
100
AcDbZombieObject
 90
      499
 91
      501
 93
      420
310
4255DA5C99599C985B595059028333333333333E33F0000000000000F90107901411070040501600405405064090740C02480A0340
1001
ACAD
1000
AcDbSavedByObjectVersion
1070
     0
  0
ACAD_PROXY_OBJECT
  5
40
102
{ACAD_REACTORS
330
2A
102
}
330
2A
100
AcDbZombieObject
 90
      499
 91
      501
 93
      404
310
41560B54985E51940902404000000000000E03F0000000000000F9010740501907004050150841D405064090740C02480A1B40
1001
ACAD
1000
AcDbSavedByObjectVersion
1070
     0
  0
DICTIONARYVAR
  5
30D8
102
{ACAD_REACTORS
330
30CC
102
}
330
30CC
100
DictionaryVariables
280
     0
  1
1:1
  0
DICTIONARYVAR
  5
30CE
102
{ACAD_REACTORS
330
30CC
102
}
330
30CC
100
DictionaryVariables
280
     0
  1
Standard
  0
DICTIONARYVAR
  5
30CD
102
{ACAD_REACTORS
330
30CC
102
}
330
30CC
100
DictionaryVariables
280
     0
  1
Standard
  0
DICTIONARYVAR
  5
30D3
102
{ACAD_REACTORS
330
30CC
102
}
330
30CC
100
DictionaryVariables
280
     0
  1
2
  0
DICTIONARYVAR
  5
30D4
102
{ACAD_REACTORS
330
30CC
102
}
330
30CC
100
DictionaryVariables
280
     0
  1
1
  0
DICTIONARYVAR
  5
30D9
102
{ACAD_REACTORS
330
30CC
102
}
330
30CC
100
DictionaryVariables
280
     0
  1
1
  0
DICTIONARYVAR
  5
30D2
102
{ACAD_REACTORS
330
30CC
102
}
330
30CC
100
DictionaryVariables
280
     0
  1
0
  0
DICTIONARYVAR
  5
30CF
102
{ACAD_REACTORS
330
30CC
102
}
330
30CC
100
DictionaryVariables
280
     0
  1
0
  0
DICTIONARY
  5
30DC
330
45
100
AcDbDictionary
  3
ACAD_XREC_ROUNDTRIP
360
30DD
1001
ACAD
1000
TREAT_AS_HARD
1070
     1
  0
DICTIONARY
  5
30DA
330
44
100
AcDbDictionary
  3
ACAD_XREC_ROUNDTRIP
360
30DB
1001
ACAD
1000
TREAT_AS_HARD
1070
     1
  0
DICTIONARY
  5
30DE
330
46
100
AcDbDictionary
  3
ACAD_XREC_ROUNDTRIP
360
30DF
1001
ACAD
1000
TREAT_AS_HARD
1070
     1
  0
XRECORD
  5
30DD
102
{ACAD_REACTORS
330
30DC
102
}
330
30DC
100
AcDbXrecord
102
MATERIAL
148
0.0
149
0.0
149
0.0
 93
        0
 94
      127
282
     0
 72
     1
 77
     1
171
     1
175
     1
179
     1
273
     0
  0
XRECORD
  5
30DB
102
{ACAD_REACTORS
330
30DA
102
}
330
30DA
100
AcDbXrecord
102
MATERIAL
148
0.0
149
0.0
149
0.0
 93
        0
 94
      127
282
     0
 72
     1
 77
     1
171
     1
175
     1
179
     1
273
     0
  0
XRECORD
  5
30DF
102
{ACAD_REACTORS
330
30DE
102
}
330
30DE
100
AcDbXrecord
102
MATERIAL
148
0.0
149
0.0
149
0.0
 93
        0
 94
      127
282
     0
 72
     1
 77
     1
171
     1
175
     1
179
     1
273
     0
  0
ENDSEC
  0
EOF
